旋风动漫BT资源发布索引 | 汇聚动漫BT/ED资源
HD 1080p from Prime Video. Use CBR bitrate mode. We are planning to upload all prime video japan Dramas and Movies, we need your Support! Support Us Ali (Zhifubao / QR code): https://i.ibb.co/FWV2ggm/1660626347125.png General Unique ID : 248911772301303546547507790938195673465 (0xBB42A9E048CC03C45A34E66BCE3CC179) Complete name : Unmei.Keisatsu.EP05.1080p.AMZN.WEB-DL.DDP2.0.H.264-MagicStar.mkv Format : Matroska Format version : Version 4 File size : 1.59 GiB Duration : 23 min 14 s Overall bit rate mode : Constant Overall bit rate : 9 771 kb/s Encoded date : UTC 2022-08-15 09:26:56 Writing application : mkvmerge v50.0.0 ('Awakenings') 64-bit Writing library : libebml v1.4.0 + libmatroska v1.6.2 Cover : Yes Attachments : cover.png Video ID : 1 Format : AVC Format/Info : Advanced Video Codec Format profile : High@L4 Format settings : CABAC / 4 Ref Frames Format settings, CABAC : Yes Format settings, Reference fra : 4 frames Codec ID : V_MPEG4/ISO/AVC Duration : 23 min 14 s Bit rate mode : Constant Bit rate : 10 000 kb/s Width : 1 920 pixels Height : 1 080 pixels Display aspect ratio : 16:9 Frame rate mode : Constant Frame rate : 23.976 (24000/1001) FPS Color space : YUV Chroma subsampling : 4:2:0 Bit depth : 8 bits Scan type : Progressive Bits/(Pixel*Frame) : 0.201 Stream size : 1.55 GiB (98%) Default : Yes Forced : No Color range : Limited Color primaries : BT.709 Transfer characteristics : BT.709 Matrix coefficients : BT.709 Audio ID : 2 Format : E-AC-3 Format/Info : Enhanced AC-3 Commercial name : Dolby Digital Plus Codec ID : A_EAC3 Duration : 23 min 14 s Bit rate mode : Constant Bit rate : 224 kb/s Channel(s) : 2 channels Channel layout : L R Sampling rate : 48.0 kHz Frame rate : 31.250 FPS (1536 SPF) Compression mode : Lossy Stream size : 37.2 MiB (2%) Language : Japanese Service kind : Complete Main Default : Yes Forced : No
昨天 15:14 日剧更新了
HD 1080p from official website. No watermark version. Japanese subtitles added. General Unique ID : 327523995888973648122705398197241628358 (0xF666D3BE0EA88A4BAAB4992C0371C6C6) Complete name : [MagicStar] Mahou no Rinobe EP05 [WEBDL] [1080p].mkv Format : Matroska Format version : Version 4 File size : 944 MiB Duration : 45 min 36 s Overall bit rate mode : Variable Overall bit rate : 2 893 kb/s Writing application : Lavf57.48.101 Writing library : Lavf57.48.101 Video ID : 1 Format : AVC Format/Info : Advanced Video Codec Format profile : High@L4 Format settings : CABAC / 4 Ref Frames Format settings, CABAC : Yes Format settings, Reference fra : 4 frames Codec ID : V_MPEG4/ISO/AVC Duration : 45 min 35 s Bit rate mode : Variable Maximum bit rate : 4 051 kb/s Width : 1 920 pixels Height : 1 080 pixels Display aspect ratio : 16:9 Frame rate mode : Constant Frame rate : 29.970 (30000/1001) FPS Color space : YUV Chroma subsampling : 4:2:0 Bit depth : 8 bits Scan type : Progressive Default : Yes Forced : No Color range : Limited Color primaries : BT.709 Transfer characteristics : BT.709 Matrix coefficients : BT.709 Audio ID : 2 Format : AAC LC Format/Info : Advanced Audio Codec Low Complexity Codec ID : A_AAC-2 Duration : 45 min 36 s Channel(s) : 2 channels Channel layout : L R Sampling rate : 48.0 kHz Frame rate : 46.875 FPS (1024 SPF) Compression mode : Lossy Delay relative to video : -66 ms Default : Yes Forced : No
昨天 15:14 日剧更新了
HD 1080p from HULU JAPAN. General Unique ID : 217251768436366208652722595199844727874 (0xA3712B2B5A6DEC840670E869FDD5BC42) Complete name : Shin.Shinchou.Kouki.Classmate.wa.Sengoku.Bushou.EP04.1080p.HULU.WEB-DL.AAC2.0.H.264-MagicStar.mkv Format : Matroska Format version : Version 4 File size : 1.24 GiB Duration : 46 min 8 s Overall bit rate : 3 839 kb/s Encoded date : UTC 2022-08-15 08:21:02 Writing application : mkvmerge v50.0.0 ('Awakenings') 64-bit Writing library : libebml v1.4.0 + libmatroska v1.6.2 Cover : Yes Attachments : cover.png Video ID : 1 Format : AVC Format/Info : Advanced Video Codec Format profile : High@L4 Format settings : CABAC / 4 Ref Frames Format settings, CABAC : Yes Format settings, Reference fra : 4 frames Codec ID : V_MPEG4/ISO/AVC Duration : 46 min 8 s Bit rate : 3 711 kb/s Width : 1 920 pixels Height : 1 080 pixels Display aspect ratio : 16:9 Frame rate mode : Constant Frame rate : 29.970 (29970/1000) FPS Original frame rate : 29.970 (30000/1001) FPS Color space : YUV Chroma subsampling : 4:2:0 Bit depth : 8 bits Scan type : Progressive Bits/(Pixel*Frame) : 0.060 Stream size : 1.20 GiB (97%) Default : Yes Forced : No Color range : Limited Color primaries : BT.709 Transfer characteristics : BT.709 Matrix coefficients : BT.709 Audio ID : 2 Format : AAC LC Format/Info : Advanced Audio Codec Low Complexity Codec ID : A_AAC-2 Duration : 46 min 8 s Bit rate : 125 kb/s Channel(s) : 2 channels Channel layout : L R Sampling rate : 48.0 kHz Frame rate : 46.875 FPS (1024 SPF) Compression mode : Lossy Stream size : 41.4 MiB (3%) Language : Japanese Default : Yes Forced : No
昨天 15:14 日剧更新了
HD 1080p from Prime Video. Use CBR bitrate mode. We are planning to upload all prime video japan Dramas and Movies, we need your Support! Support Us Ali (Zhifubao / QR code): https://i.ibb.co/FWV2ggm/1660626347125.png General Unique ID : 114303680380604110241361117785822555593 (0x55FE168C66F5997432C1041CFBEB6DC9) Complete name : Ultraman.Decker.EP05.1080p.AMZN.WEB-DL.DDP2.0.H.264-MagicStar.mkv Format : Matroska Format version : Version 4 File size : 1.48 GiB Duration : 24 min 35 s Overall bit rate mode : Constant Overall bit rate : 8 644 kb/s Encoded date : UTC 2022-08-15 09:28:59 Writing application : mkvmerge v50.0.0 ('Awakenings') 64-bit Writing library : libebml v1.4.0 + libmatroska v1.6.2 Cover : Yes Attachments : cover.png Video ID : 1 Format : AVC Format/Info : Advanced Video Codec Format profile : High@L4 Format settings : CABAC / 4 Ref Frames Format settings, CABAC : Yes Format settings, Reference fra : 4 frames Codec ID : V_MPEG4/ISO/AVC Duration : 24 min 35 s Bit rate mode : Constant Bit rate : 8 401 kb/s Nominal bit rate : 10 000 kb/s Width : 1 920 pixels Height : 1 080 pixels Display aspect ratio : 16:9 Frame rate mode : Constant Frame rate : 23.976 (24000/1001) FPS Color space : YUV Chroma subsampling : 4:2:0 Bit depth : 8 bits Scan type : Progressive Bits/(Pixel*Frame) : 0.169 Stream size : 1.44 GiB (97%) Default : Yes Forced : No Color range : Limited Color primaries : BT.709 Transfer characteristics : BT.709 Matrix coefficients : BT.709 Audio ID : 2 Format : E-AC-3 Format/Info : Enhanced AC-3 Commercial name : Dolby Digital Plus Codec ID : A_EAC3 Duration : 24 min 35 s Bit rate mode : Constant Bit rate : 224 kb/s Channel(s) : 2 channels Channel layout : L R Sampling rate : 48.0 kHz Frame rate : 31.250 FPS (1536 SPF) Compression mode : Lossy Stream size : 39.4 MiB (3%) Language : Japanese Service kind : Complete Main Default : Yes Forced : No
昨天 15:14 特摄连载
Liyuu First Concert 2022 「Fo(u)r YuU」 BDRip 10-bit 1080p HEVC + FLAC,MKV 格式。Live 全篇约 6.0 GB。 这个项目与 Liyuuの上海滩 合作,感谢他们精心制作的字幕。 This project is in cooperation with L!BS . Thanks to them for elaborating Chinese subtitles. 请注意:本片字幕分为全特效(.se)和去特效(.nse)两个版本。全特效字幕需要 VSFilterMod 才能正确显示,其余方式均无法正常播放。去特效字幕则删除了特效部分,常规播放器使用的字幕渲染插件即可正常播放。如果你不想折腾 VSFilterMod,那么可以选择去特效字幕,不过我们仍然建议有能力有时间的观众尽量使用全特效字幕,以获得更加完整的观看体验。 Please note: Subtitles of this project are available in full effects (.se) and normal (.nse) versions. The full-effects subtitle requires VSFilterMod to display correctly, all other methods will more or less lead to incorrect effects. The normal subtitle removes the special effects, which can be played by regular subtitle-rendering plugin. If you don't want to spend time on VSFilterMod, then choose the normal subtitle. But we highly recommend full-effects subtitle for ones who have both the time and the capabilities because of the fuller viewing experience. 原盘质量较差,码率只有隔壁 LL 的一半,帧率也只有 23.976fps。更糟糕的是,不知是录像设备问题还是后期故意添加的,原盘有一层非常厚重的噪点。显然原盘贫瘠的码率无法承载这堆噪点,因此我们能在原盘画面中看到各种欠码导致的问题:线条周围有明显被压碎的烂噪,平面上有严重的色块色带。为解决上述问题,我们本次采取了非常激进的降噪策略,并辅以强力去色带手段,将烂噪和色块等全部打掉。 The quality of the source is not very good, compared to Nijigasaki Gakuen 3rd Live, only half the bitrate and 23.976 fps. To make matters worse, the source features heavy grain, which could be either due to recording equipment or added duing post-production. This is clearly beyond the unfortunately low bitrate of the source could handle, as demonstrated in various problems such as: noticeable DCT ringing, heavy blocking and banding in the flat area. We adopted aggressive denoising, together with strong de-banding to eliminate these artifacts. 感谢所有资源提供者 / Thank to all resource providers: Scans: Ronny@U2 CDs: Ronny@U2 本资源扫图格式为 WebP,浏览详情请参见 https://vcb-s.com/archives/7949 。 Please refer to https://vcb-s.com/archives/7949 if you have trouble viewing WebP images. 有关 TSDM 合购区的详情请参见 https://www.tsdm39.net/forum.php?mod=viewthread&tid=879923 。 Please refer to https://www.tsdm39.net/forum.php?mod=viewthread&tid=879923 for more information about jointly purchased music. 基础播放器教程: PotPlayer / MPC-HC / IINA 进阶播放器教程: madVR / PotPlayer+madVR / mpv 中文字幕分享区: Anime 分享论坛 (请善用搜索) 项目计划与列表: VCB-Studio 项目列表 (每月初更新) Comparison (right click on the image and open it in a new tab to see the full-size one) Source________________________________________________Encode
昨天 15:14 五花八门
◎译  名 打工吧!魔王大人 第二季 ◎片  名 はたらく魔王さま!! ◎年  代 2022 ◎产  地 日本 ◎类  别 剧情 / 喜剧 / 爱情 / 奇幻 ◎语  言 日语 ◎上映日期 2022-07-14(日本) ◎豆瓣链接 https://movie.douban.com/subject/35386332/ ◎单集片长 24分钟 ◎集  数 12 ◎导  演 筑紫大介 / Chikusi Daisuke ◎演  员 逢坂良太 / Ryota Ohsaka       日笠阳子 / Yoko Hikasa       东山奈央 / Nao Toyama       小野友树 / Yuuki Ono       下野纮 / Hiro Shimono       伊藤加奈惠 / Kanae Ito       木野日菜 / Hina Kino ◎编  剧 横谷昌宏 / Masahiro Yokotani ◎简  介  一间六张榻榻米的魔王城,一个自由职业魔王展开的平民派幻想,波澜起伏的TV动画第2幕,开始!! 离谱Sub 翻译: 用爱发电的萌新 校对: ま、いっか 繁化: Laputa 时轴& 特效 : Lambholl球球 压制: ksks Lester 本作品采用 知识共享署名-非商业性使用-相同方式共享 4.0 国际许可协议 进行许可 交流 / 报错 / 加入我们 欢迎加入 QQ群: 690716401 Telegram频道: @lpsub_ch Telegram群组: @lpsub_chat 邮箱: lpsub@yunyize.com 字幕组招募:翻译 校对 时轴 压制 繁化 翻译: 能正确听译动画即可,同时有一定语文水平(虽然不一定文笔要多好,但是至少不能写出病句); 校对: 能对翻译稿的错误进行校正,同时有一定语文水平(当然也是至少不能写出病句); 压制: 要求有一定的压制设备(10代i5及以上水平),使用 VapourSynth 进行压制(能写脚本最好,不会也行)(当然我们实际使用的是 OKEGui 进行压制,详见 GitHub ; 时轴: 能使用 Aegisub 打轴,同时能利用 Advanced SubStation Alpha 和 Aegisub 等的特性写一些特效,同时能设置合适的样式; 繁化: 如果您生活在或曾经生活在中国香港或其周边地区,对当地用语习惯比较熟悉,那么欢迎加入我们,进行字幕繁化工作; 我们长期提供 时轴 / 压制 教学 字幕组所收集字体包: 详见 Anime 字幕论坛 由于此字幕OP特效文件过大,没有任何 DirectShow 滤镜可以流畅渲染,因此我们发布 内封 PGS 图形字幕的 Ma10p 版本 ( 若在 使用 XySubFilter 播放时跳跃播放,可能导致跳跃后第一句字幕无法正常显示) 如果您想要下载 ASS 外挂字幕,我们给出了 OneDrive网盘链接 ,访问密码: 114514 您也可以在 BV19S4y177i6 预览此番的简日歌词特效
昨天 13:56 动画更新员
◎译  名 打工吧!魔王大人 第二季 ◎片  名 はたらく魔王さま!! ◎年  代 2022 ◎产  地 日本 ◎类  别 剧情 / 喜剧 / 爱情 / 奇幻 ◎语  言 日语 ◎上映日期 2022-07-14(日本) ◎豆瓣链接 https://movie.douban.com/subject/35386332/ ◎单集片长 24分钟 ◎集  数 12 ◎导  演 筑紫大介 / Chikusi Daisuke ◎演  员 逢坂良太 / Ryota Ohsaka       日笠阳子 / Yoko Hikasa       东山奈央 / Nao Toyama       小野友树 / Yuuki Ono       下野纮 / Hiro Shimono       伊藤加奈惠 / Kanae Ito       木野日菜 / Hina Kino ◎编  剧 横谷昌宏 / Masahiro Yokotani ◎简  介  一间六张榻榻米的魔王城,一个自由职业魔王展开的平民派幻想,波澜起伏的TV动画第2幕,开始!! 离谱Sub 翻译: 用爱发电的萌新 校对: ま、いっか 繁化: Laputa 时轴& 特效 : Lambholl球球 压制: ksks Lester 本作品采用 知识共享署名-非商业性使用-相同方式共享 4.0 国际许可协议 进行许可 交流 / 报错 / 加入我们 欢迎加入 QQ群: 690716401 Telegram频道: @lpsub_ch Telegram群组: @lpsub_chat 邮箱: lpsub@yunyize.com 字幕组招募:翻译 校对 时轴 压制 繁化 翻译: 能正确听译动画即可,同时有一定语文水平(虽然不一定文笔要多好,但是至少不能写出病句); 校对: 能对翻译稿的错误进行校正,同时有一定语文水平(当然也是至少不能写出病句); 压制: 要求有一定的压制设备(10代i5及以上水平),使用 VapourSynth 进行压制(能写脚本最好,不会也行)(当然我们实际使用的是 OKEGui 进行压制,详见 GitHub ; 时轴: 能使用 Aegisub 打轴,同时能利用 Advanced SubStation Alpha 和 Aegisub 等的特性写一些特效,同时能设置合适的样式; 繁化: 如果您生活在或曾经生活在中国香港或其周边地区,对当地用语习惯比较熟悉,那么欢迎加入我们,进行字幕繁化工作; 我们长期提供 时轴 / 压制 教学 字幕组所收集字体包: 详见 Anime 字幕论坛 由于此字幕OP特效文件过大,没有任何 DirectShow 滤镜可以流畅渲染,因此我们发布 内封 PGS 图形字幕的 Ma10p 版本 ( 若在 使用 XySubFilter 播放时跳跃播放,可能导致跳跃后第一句字幕无法正常显示) 如果您想要下载 ASS 外挂字幕,我们给出了 OneDrive网盘链接 ,访问密码: 114514 您也可以在 BV19S4y177i6 预览此番的简日歌词特效
昨天 13:56 动画更新员
HD 1080p from official website. No watermark version. Japanese subtitles added. General Unique ID : 109832866813285841838058745911903815835 (0x52A10A6BCC2CE328C37B76EC4D00889B) Complete name : [MagicStar] Ikemen-domo yo Meshi wo Kue EP06 [WEBDL] [1080p].mkv Format : Matroska Format version : Version 4 File size : 477 MiB Duration : 23 min 4 s Overall bit rate mode : Variable Overall bit rate : 2 890 kb/s Writing application : Lavf57.48.101 Writing library : Lavf57.48.101 Video ID : 1 Format : AVC Format/Info : Advanced Video Codec Format profile : High@L4 Format settings : CABAC / 4 Ref Frames Format settings, CABAC : Yes Format settings, Reference fra : 4 frames Codec ID : V_MPEG4/ISO/AVC Duration : 23 min 3 s Bit rate mode : Variable Maximum bit rate : 4 042 kb/s Width : 1 920 pixels Height : 1 080 pixels Display aspect ratio : 16:9 Frame rate mode : Constant Frame rate : 29.970 (30000/1001) FPS Color space : YUV Chroma subsampling : 4:2:0 Bit depth : 8 bits Scan type : Progressive Default : Yes Forced : No Color range : Limited Color primaries : BT.709 Transfer characteristics : BT.709 Matrix coefficients : BT.709 Audio ID : 2 Format : AAC LC Format/Info : Advanced Audio Codec Low Complexity Codec ID : A_AAC-2 Duration : 23 min 4 s Channel(s) : 2 channels Channel layout : L R Sampling rate : 48.0 kHz Frame rate : 46.875 FPS (1024 SPF) Compression mode : Lossy Delay relative to video : -66 ms Default : Yes Forced : No
昨天 13:56 日剧更新了
HD 1080p from HULU JAPAN. General Unique ID : 223155730478593324297426403154163249809 (0xA7E23AF8CF412C74799708676D85B291) Complete name : Hatsukoi.no.Akuma.EP05.1080p.HULU.WEB-DL.AAC2.0.H.264-MagicStar.mkv Format : Matroska Format version : Version 4 File size : 1.22 GiB Duration : 46 min 3 s Overall bit rate : 3 800 kb/s Encoded date : UTC 2022-08-15 08:17:23 Writing application : mkvmerge v50.0.0 ('Awakenings') 64-bit Writing library : libebml v1.4.0 + libmatroska v1.6.2 Cover : Yes Attachments : cover.png Video ID : 1 Format : AVC Format/Info : Advanced Video Codec Format profile : High@L4 Format settings : CABAC / 4 Ref Frames Format settings, CABAC : Yes Format settings, Reference fra : 4 frames Codec ID : V_MPEG4/ISO/AVC Duration : 46 min 2 s Bit rate : 3 672 kb/s Width : 1 920 pixels Height : 1 080 pixels Display aspect ratio : 16:9 Frame rate mode : Constant Frame rate : 29.970 (29970/1000) FPS Original frame rate : 29.970 (30000/1001) FPS Color space : YUV Chroma subsampling : 4:2:0 Bit depth : 8 bits Scan type : Progressive Bits/(Pixel*Frame) : 0.059 Stream size : 1.18 GiB (97%) Default : Yes Forced : No Color range : Limited Color primaries : BT.709 Transfer characteristics : BT.709 Matrix coefficients : BT.709 Audio ID : 2 Format : AAC LC Format/Info : Advanced Audio Codec Low Complexity Codec ID : A_AAC-2 Duration : 46 min 3 s Bit rate : 125 kb/s Channel(s) : 2 channels Channel layout : L R Sampling rate : 48.0 kHz Frame rate : 46.875 FPS (1024 SPF) Compression mode : Lossy Stream size : 41.3 MiB (3%) Language : Japanese Default : Yes Forced : No
昨天 13:56 日剧更新了
HD 1080p from Prime Video. Use CBR bitrate mode. We are planning to upload all prime video japan Dramas and Movies, we need your Support! Support Us Ali (Zhifubao / QR code): https://i.ibb.co/FWV2ggm/1660626347125.png General Unique ID : 253555576386880711376054875057468794411 (0xBEC1071832BFFC8919369A3B5CB4E62B) Complete name : Banshaku.no.Ryuugi.EP07.1080p.AMZN.WEB-DL.DDP2.0.H.264-MagicStar.mkv Format : Matroska Format version : Version 4 File size : 1.61 GiB Duration : 23 min 59 s Overall bit rate mode : Constant Overall bit rate : 9 632 kb/s Encoded date : UTC 2022-08-15 09:28:01 Writing application : mkvmerge v50.0.0 ('Awakenings') 64-bit Writing library : libebml v1.4.0 + libmatroska v1.6.2 Cover : Yes Attachments : cover.png Video ID : 1 Format : AVC Format/Info : Advanced Video Codec Format profile : High@L4 Format settings : CABAC / 4 Ref Frames Format settings, CABAC : Yes Format settings, Reference fra : 4 frames Codec ID : V_MPEG4/ISO/AVC Duration : 23 min 59 s Bit rate mode : Constant Bit rate : 9 404 kb/s Nominal bit rate : 10 000 kb/s Width : 1 920 pixels Height : 1 080 pixels Display aspect ratio : 16:9 Frame rate mode : Constant Frame rate : 29.970 (29970/1000) FPS Original frame rate : 29.970 (30000/1001) FPS Color space : YUV Chroma subsampling : 4:2:0 Bit depth : 8 bits Scan type : Progressive Bits/(Pixel*Frame) : 0.151 Stream size : 1.58 GiB (98%) Default : Yes Forced : No Color range : Limited Color primaries : BT.709 Transfer characteristics : BT.709 Matrix coefficients : BT.709 Audio ID : 2 Format : E-AC-3 Format/Info : Enhanced AC-3 Commercial name : Dolby Digital Plus Codec ID : A_EAC3 Duration : 23 min 59 s Bit rate mode : Constant Bit rate : 224 kb/s Channel(s) : 2 channels Channel layout : L R Sampling rate : 48.0 kHz Frame rate : 31.250 FPS (1536 SPF) Compression mode : Lossy Stream size : 38.5 MiB (2%) Language : Japanese Service kind : Complete Main Default : Yes Forced : No
昨天 13:56 日剧更新了
HD 1080p from HULU JAPAN. General Unique ID : 77612825456310731476632195909216786094 (0x3A63AFBBF08A549D701CB4C0DC2256AE) Complete name : Octo.Kanjou.Sousakan.Shinno.Akari.EP06.1080p.HULU.WEB-DL.AAC2.0.H.264-MagicStar.mkv Format : Matroska Format version : Version 4 File size : 732 MiB Duration : 42 min 37 s Overall bit rate : 2 401 kb/s Encoded date : UTC 2022-08-15 07:58:05 Writing application : mkvmerge v50.0.0 ('Awakenings') 64-bit Writing library : libebml v1.4.0 + libmatroska v1.6.2 Cover : Yes Attachments : cover.png Video ID : 1 Format : AVC Format/Info : Advanced Video Codec Format profile : High@L4 Format settings : CABAC / 4 Ref Frames Format settings, CABAC : Yes Format settings, Reference fra : 4 frames Codec ID : V_MPEG4/ISO/AVC Duration : 42 min 37 s Bit rate : 2 273 kb/s Width : 1 920 pixels Height : 1 080 pixels Display aspect ratio : 16:9 Frame rate mode : Constant Frame rate : 29.970 (29970/1000) FPS Original frame rate : 29.970 (30000/1001) FPS Color space : YUV Chroma subsampling : 4:2:0 Bit depth : 8 bits Scan type : Progressive Bits/(Pixel*Frame) : 0.037 Stream size : 693 MiB (95%) Default : Yes Forced : No Color range : Limited Color primaries : BT.709 Transfer characteristics : BT.709 Matrix coefficients : BT.709 Audio ID : 2 Format : AAC LC Format/Info : Advanced Audio Codec Low Complexity Codec ID : A_AAC-2 Duration : 42 min 37 s Bit rate : 125 kb/s Channel(s) : 2 channels Channel layout : L R Sampling rate : 48.0 kHz Frame rate : 46.875 FPS (1024 SPF) Compression mode : Lossy Stream size : 38.2 MiB (5%) Language : Japanese Default : Yes Forced : No
昨天 13:55 日剧更新了