旋风动漫BT资源发布索引 | 汇聚动漫BT/ED资源
为您找到相关结果个     结果不正确?请到这里反馈!
HD 1080p from Youtube official channel. English and Chinese subtitles added. General Unique ID : 34103511960123012833151956498352679554 (0x19A818F50EA80F2CA33D81C98883AA82) Complete name : [MagicStar] GARO - Hagane wo Tsugu Mono EP07 [WEBDL] [1080p] [YOUTUBE].mkv Format : Matroska Format version : Version 4 File size : 417 MiB Duration : 23 min 40 s Overall bit rate : 2 462 kb/s Frame rate : 23.976 FPS Encoded date : 2024-02-26 04:48:33 UTC Writing application : mkvmerge v50.0.0 ('Awakenings') 64-bit Writing library : libebml v1.4.0 + libmatroska v1.6.2 Video ID : 1 Format : AVC Format/Info : Advanced Video Codec Format profile : High@L4 Format settings : CABAC / 3 Ref Frames Format settings, CABAC : Yes Format settings, Reference fra : 3 frames Codec ID : V_MPEG4/ISO/AVC Duration : 23 min 40 s Bit rate : 2 332 kb/s Width : 1 920 pixels Height : 1 080 pixels Display aspect ratio : 16:9 Frame rate mode : Constant Frame rate : 23.976 (24000/1001) FPS Color space : YUV Chroma subsampling : 4:2:0 Bit depth : 8 bits Scan type : Progressive Bits/(Pixel*Frame) : 0.047 Stream size : 395 MiB (95%) Writing library : x264 core 155 r2901 7d0ff22 Default : Yes Forced : No Color range : Limited Color primaries : BT.709 Transfer characteristics : BT.709 Matrix coefficients : BT.709 Audio ID : 2 Format : AAC LC Format/Info : Advanced Audio Codec Low Complexity Codec ID : A_AAC-2 Duration : 23 min 40 s Bit rate : 128 kb/s Channel(s) : 2 channels Channel layout : L R Sampling rate : 44.1 kHz Frame rate : 43.066 FPS (1024 SPF) Compression mode : Lossy Stream size : 21.7 MiB (5%) Title : 日本語 [オリジナル] Language : Japanese Default : Yes Forced : No
昨天 18:00 特摄连载
HD from HULU JAPAN. General Unique ID : 281057980913676551769918322931343372905 (0xD371CC53E3F421860F347F9EB9953269) Complete name : GARO.Hagane.wo.Tsugu.Mono.EP07.HULU.WEB-DL.AAC2.0.H.264-MagicStar.mkv Format : Matroska Format version : Version 4 File size : 1.03 GiB Duration : 23 min 41 s Overall bit rate : 6 205 kb/s Frame rate : 23.976 FPS Encoded date : 2024-02-23 03:10:28 UTC Writing application : mkvmerge v50.0.0 ('Awakenings') 64-bit Writing library : libebml v1.4.0 + libmatroska v1.6.2 Cover : Yes Attachments : cover.png Video ID : 1 Format : AVC Format/Info : Advanced Video Codec Format profile : High@L4 Format settings : CABAC / 4 Ref Frames Format settings, CABAC : Yes Format settings, Reference fra : 4 frames Codec ID : V_MPEG4/ISO/AVC Duration : 23 min 41 s Bit rate : 5 949 kb/s Width : 1 600 pixels Height : 900 pixels Display aspect ratio : 16:9 Frame rate mode : Constant Frame rate : 23.976 (24000/1001) FPS Color space : YUV Chroma subsampling : 4:2:0 Bit depth : 8 bits Scan type : Progressive Bits/(Pixel*Frame) : 0.172 Stream size : 1 008 MiB (96%) Default : Yes Forced : No Color range : Limited Color primaries : BT.709 Transfer characteristics : BT.709 Matrix coefficients : BT.709 Audio ID : 2 Format : AAC LC Format/Info : Advanced Audio Codec Low Complexity Codec ID : A_AAC-2 Duration : 23 min 41 s Bit rate : 253 kb/s Channel(s) : 2 channels Channel layout : L R Sampling rate : 48.0 kHz Frame rate : 46.875 FPS (1024 SPF) Compression mode : Lossy Stream size : 42.9 MiB (4%) Title : 日本語 [オリジナル] Language : Japanese Default : Yes Forced : No
昨天 18:00 特摄连载
HD 1080p from U-NEXT. We are planning to upload all U-NEXT Dramas and Movies, we need your Support! Support Us Ali (Zhifubao / QR code): https://i.ibb.co/FWV2ggm/1660626347125.png PayPalMe: https://www.paypal.com/paypalme/sakuragikenji ETH (ERC20): 0xea3286E176099E8C9aBaf25A0edf231374C04E89 USDT (BTC / OMNI): 1Lemw6fu5vG3NdvWGxDxsPX7T7yUb3rNzu General Unique ID : 28057707636386108757353705706023774685 (0x151BB7CA4FBB9FAC8B897CB4FAC769DD) Complete name : GARO.Hagane.wo.Tsugu.Mono.EP07.1080p.U-NEXT.WEB-DL.AAC2.0.H.264-MagicStar.mkv Format : Matroska Format version : Version 4 File size : 701 MiB Duration : 23 min 42 s Overall bit rate : 4 138 kb/s Frame rate : 29.970 FPS Encoded date : 2024-02-23 03:05:42 UTC Writing application : mkvmerge v50.0.0 ('Awakenings') 64-bit Writing library : libebml v1.4.0 + libmatroska v1.6.2 Cover : Yes Attachments : cover.png Video ID : 1 Format : AVC Format/Info : Advanced Video Codec Format profile : Main@L4 Format settings : CABAC / 2 Ref Frames Format settings, CABAC : Yes Format settings, Reference fra : 2 frames Codec ID : V_MPEG4/ISO/AVC Duration : 23 min 41 s Bit rate : 4 020 kb/s Width : 1 920 pixels Height : 1 080 pixels Display aspect ratio : 16:9 Frame rate mode : Constant Frame rate : 29.970 (29970/1000) FPS Color space : YUV Chroma subsampling : 4:2:0 Bit depth : 8 bits Scan type : Progressive Bits/(Pixel*Frame) : 0.065 Stream size : 679 MiB (97%) Writing library : x264 core 148 r2665kMod a01e339 Encoding settings : cabac=1 / ref=2 / deblock=1:1:1 / analyse=0x1:0x111 / me=tesa / subme=11 / psy=1 / fade_compensate=0.00 / psy_rd=0.40:0.10 / mixed_ref=1 / me_range=48 / chroma_me=1 / trellis=2 / 8x8dct=0 / cqm=0 / deadzone=21,11 / fast_pskip=1 / chroma_qp_offset=-3 / threads=12 / lookahead_threads=1 / sliced_threads=0 / nr=0 / decimate=1 / interlaced=0 / bluray_compat=0 / constrained_intra=0 / fgo=0 / bframes=2 / b_pyramid=0 / b_adapt=2 / b_bias=0 / direct=3 / weightb=1 / open_gop=0 / weightp=2 / keyint=60 / keyint_min=31 / scenecut=0 / intra_refresh=0 / rc_lookahead=60 / rc=2pass / mbtree=1 / bitrate=4020 / ratetol=1.0 / qcomp=0.80 / qpmin=10 / qpmax=69 / qpstep=15 / cplxblur=20.0 / qblur=0.5 / vbv_maxrate=8050 / vbv_bufsize=8050 / nal_hrd=none / filler=0 / ip_ratio=1.40 / aq=2:0.60 Default : Yes Forced : No Audio ID : 2 Format : AAC LC Format/Info : Advanced Audio Codec Low Complexity Codec ID : A_AAC-2 Duration : 23 min 42 s Bit rate : 125 kb/s Channel(s) : 2 channels Channel layout : L R Sampling rate : 48.0 kHz Frame rate : 46.875 FPS (1024 SPF) Compression mode : Lossy Stream size : 21.3 MiB (3%) Title : 日本語 [オリジナル] Language : Japanese Default : Yes Forced : No
昨天 18:00 特摄连载
HD 1080p from TVer. General Unique ID : 147026229111490819267212700289338844876 (0x6E9C38C3028CC407D46D682E16D626CC) Complete name : [MagicStar] GARO - Hagane wo Tsugu Mono EP07 [WEBDL] [1080p].mkv Format : Matroska Format version : Version 4 File size : 489 MiB Duration : 23 min 40 s Overall bit rate : 2 885 kb/s Frame rate : 29.970 FPS Encoded date : 2024-02-23 02:59:47 UTC Writing application : mkvmerge v50.0.0 ('Awakenings') 64-bit Writing library : libebml v1.4.0 + libmatroska v1.6.2 Video ID : 1 Format : AVC Format/Info : Advanced Video Codec Format profile : High@L4 Format settings : CABAC / 4 Ref Frames Format settings, CABAC : Yes Format settings, Reference fra : 4 frames Codec ID : V_MPEG4/ISO/AVC Duration : 23 min 40 s Bit rate : 2 691 kb/s Width : 1 920 pixels Height : 1 080 pixels Display aspect ratio : 16:9 Frame rate mode : Constant Frame rate : 29.970 (29970/1000) FPS Original frame rate : 29.970 (30000/1001) FPS Color space : YUV Chroma subsampling : 4:2:0 Bit depth : 8 bits Scan type : Progressive Bits/(Pixel*Frame) : 0.043 Stream size : 456 MiB (93%) Writing library : Zencoder Video Encoding System Default : Yes Forced : No Color range : Limited Color primaries : BT.709 Transfer characteristics : BT.709 Matrix coefficients : BT.709 Audio ID : 2 Format : AAC LC Format/Info : Advanced Audio Codec Low Complexity Codec ID : A_AAC-2 Duration : 23 min 40 s Bit rate : 192 kb/s Channel(s) : 2 channels Channel layout : L R Sampling rate : 48.0 kHz Frame rate : 46.875 FPS (1024 SPF) Compression mode : Lossy Stream size : 32.5 MiB (7%) Title : 日本語 [オリジナル] Language : Japanese Default : Yes Forced : No
昨天 17:00 特摄连载
HD 1080p from Prime Video. Use CBR bitrate mode. Japanese dubbed version. We are planning to upload all Prime Video Japan Dramas and Movies, we need your Support! Support Us Ali (Zhifubao / QR code): https://i.ibb.co/FWV2ggm/1660626347125.png PayPalMe: https://www.paypal.com/paypalme/sakuragikenji ETH (ERC20): 0xea3286E176099E8C9aBaf25A0edf231374C04E89 USDT (BTC / OMNI): 1Lemw6fu5vG3NdvWGxDxsPX7T7yUb3rNzu General Unique ID : 315624367958355217866377296570964182617 (0xED730AC9E1067850245C8B05A0330659) Complete name : Armored.Saurus.S02EP16.1080p.AMZN.WEB-DL.DDP2.0.H.264.JPN.DUB-MagicStar.mkv Format : Matroska Format version : Version 4 File size : 1.45 GiB Duration : 24 min 24 s Overall bit rate mode : Constant Overall bit rate : 8 514 kb/s Frame rate : 23.976 FPS Encoded date : 2024-02-25 01:27:30 UTC Writing application : mkvmerge v50.0.0 ('Awakenings') 64-bit Writing library : libebml v1.4.0 + libmatroska v1.6.2 Cover : Yes Attachments : cover.jpg Video ID : 1 Format : AVC Format/Info : Advanced Video Codec Format profile : High@L4 Format settings : CABAC / 4 Ref Frames Format settings, CABAC : Yes Format settings, Reference fra : 4 frames Codec ID : V_MPEG4/ISO/AVC Duration : 24 min 24 s Bit rate mode : Constant Bit rate : 8 287 kb/s Nominal bit rate : 10 000 kb/s Width : 1 920 pixels Height : 1 080 pixels Display aspect ratio : 16:9 Frame rate mode : Constant Frame rate : 23.976 (24000/1001) FPS Color space : YUV Chroma subsampling : 4:2:0 Bit depth : 8 bits Scan type : Progressive Bits/(Pixel*Frame) : 0.167 Stream size : 1.41 GiB (97%) Default : Yes Forced : No Color range : Limited Color primaries : BT.709 Transfer characteristics : BT.709 Matrix coefficients : BT.709 Audio ID : 2 Format : E-AC-3 Format/Info : Enhanced AC-3 Commercial name : Dolby Digital Plus Codec ID : A_EAC3 Duration : 24 min 24 s Bit rate mode : Constant Bit rate : 224 kb/s Channel(s) : 2 channels Channel layout : L R Sampling rate : 48.0 kHz Frame rate : 31.250 FPS (1536 SPF) Compression mode : Lossy Stream size : 39.1 MiB (3%) Title : 日本語 [オリジナル] Language : Japanese Service kind : Complete Main Default : Yes Forced : No
昨天 17:00 特摄连载
满怀美梦的少年是现实主义者 / Yumemiru Danshi wa Genjitsushugisha / 夢見る男子は現実主義者 BDRip 部分剧集内封评论音轨。 Certain episodes contain commentary tracks. 原盘画质一般,原生 907p。主要问题是锯齿和振铃比较严重。我们进行了逆向拉伸重构、抗锯齿、去振铃、轻微去色带、补偿性锐化和自适应降噪。 The source quality is okay, coming in at a native resolution of 907p. The main issues are that there's quite a bit of aliasing and haloing. We applied descaling and reconstruction, anti-aliasing, de-ringing, slight de-banding, compensatory sharpening, and adaptive denoising. 感谢所有参与制作者 / Thanks to our participating members: 总监 / Script: nuevo 压制 / Encode: Judgement 整理 / Collate: 四ノ宮 凛 发布 / Upload: diazchika 分流 / Seed: VCB-Studio CDN 分流成员 感谢所有资源提供者 / Thanks to all resource providers: BD&Scans: SkyOH@U2 CDs: {SkyOH, Ronny}@U2, Kaos@AnimeBytes, Sheldonsuckz@HAYAKU VCB-Studio 已不再保证收集作品相关 CD 和扫图资源,详情请参见 https://vcb-s.com/archives/14331 。 Please refer to https://vcb-s.com/archives/14331 for more information about that VCB-Studio will no longer guarantee to include relevant CDs and scans. 本组(不)定期招募新成员。详情请参见 https://vcb-s.com/archives/16986 。 Please refer to https://vcb-s.com/archives/16986 about information of our (un)scheduled recruitment. 播放器教程索引: VCB-Studio 播放器推荐 中文字幕分享区: Anime 分享论坛 项目计划与列表: VCB-Studio 项目列表 特殊格式与说明: WebP 扫图说明 Comparison (right click on the image and open it in a new tab to see the full-size one) Source________________________________________________Encode
02/25 16:00 动画更新员
HD 1080p from TTFC. General Unique ID : 209134490814598707144280795151486006488 (0x9D55D67BCA814C5D6E139EA21D19B4D8) Complete name : [MagicStar] Ohsama Sentai King-Ohger EP50 END [WEBDL] [1080p].mkv Format : Matroska Format version : Version 4 File size : 747 MiB Duration : 22 min 15 s Overall bit rate : 4 696 kb/s Frame rate : 23.976 FPS Writing application : Lavf57.48.101 Writing library : Lavf57.48.101 DATE : 2024-02-25T09:01:00.5142278+08:00 Video ID : 1 Format : AVC Format/Info : Advanced Video Codec Format profile : High@L4 Format settings : CABAC / 4 Ref Frames Format settings, CABAC : Yes Format settings, Reference fra : 4 frames Format settings, GOP : M=3, N=48 Codec ID : V_MPEG4/ISO/AVC Duration : 22 min 15 s Width : 1 920 pixels Height : 1 080 pixels Display aspect ratio : 16:9 Frame rate mode : Constant Frame rate : 23.976 (24000/1001) FPS Color space : YUV Chroma subsampling : 4:2:0 Bit depth : 8 bits Scan type : Progressive Writing library : x264 core 148 Encoding settings : cabac=1 / ref=4 / deblock=1:1:1 / analyse=0x3:0x113 / me=hex / subme=7 / psy=1 / psy_rd=0.40:0.00 / mixed_ref=1 / me_range=16 / chroma_me=1 / trellis=1 / 8x8dct=1 / cqm=0 / deadzone=21,11 / fast_pskip=1 / chroma_qp_offset=-2 / threads=30 / lookahead_threads=5 / sliced_threads=0 / nr=0 / decimate=1 / interlaced=0 / bluray_compat=0 / constrained_intra=0 / bframes=2 / b_pyramid=2 / b_adapt=0 / b_bias=0 / direct=1 / weightb=1 / open_gop=0 / weightp=2 / keyint=48 / keyint_min=25 / scenecut=0 / intra_refresh=0 / rc_lookahead=40 / rc=crf / mbtree=1 / crf=23.0 / qcomp=0.60 / qpmin=0 / qpmax=69 / qpstep=4 / vbv_maxrate=6000 / vbv_bufsize=6000 / crf_max=0.0 / nal_hrd=none / filler=0 / ip_ratio=1.40 / aq=1:0.60 Default : Yes Forced : No Audio ID : 2 Format : AAC LC Format/Info : Advanced Audio Codec Low Complexity Codec ID : A_AAC-2 Duration : 22 min 15 s Channel(s) : 2 channels Channel layout : L R Sampling rate : 48.0 kHz Frame rate : 46.875 FPS (1024 SPF) Compression mode : Lossy Delay relative to video : -42 ms Default : Yes Forced : No
02/25 10:00 特摄连载 约1条评论
HD 1080p from TTFC. General Unique ID : 79420398047999395567152770540342769820 (0x3BBFCFF18DF56C6893A51B3ADBA2789C) Complete name : [MagicStar] Kamen Rider Gotchard EP24 [WEBDL] [1080p].mkv Format : Matroska Format version : Version 4 File size : 561 MiB Duration : 23 min 15 s Overall bit rate : 3 372 kb/s Frame rate : 23.976 FPS Writing application : Lavf57.48.101 Writing library : Lavf57.48.101 DATE : 2024-02-25T08:31:03.0361476+08:00 Video ID : 1 Format : AVC Format/Info : Advanced Video Codec Format profile : High@L4 Format settings : CABAC / 4 Ref Frames Format settings, CABAC : Yes Format settings, Reference fra : 4 frames Format settings, GOP : M=3, N=48 Codec ID : V_MPEG4/ISO/AVC Duration : 23 min 15 s Width : 1 920 pixels Height : 1 080 pixels Display aspect ratio : 16:9 Frame rate mode : Constant Frame rate : 23.976 (24000/1001) FPS Color space : YUV Chroma subsampling : 4:2:0 Bit depth : 8 bits Scan type : Progressive Writing library : x264 core 148 Encoding settings : cabac=1 / ref=4 / deblock=1:1:1 / analyse=0x3:0x113 / me=hex / subme=7 / psy=1 / psy_rd=0.40:0.00 / mixed_ref=1 / me_range=16 / chroma_me=1 / trellis=1 / 8x8dct=1 / cqm=0 / deadzone=21,11 / fast_pskip=1 / chroma_qp_offset=-2 / threads=30 / lookahead_threads=5 / sliced_threads=0 / nr=0 / decimate=1 / interlaced=0 / bluray_compat=0 / constrained_intra=0 / bframes=2 / b_pyramid=2 / b_adapt=0 / b_bias=0 / direct=1 / weightb=1 / open_gop=0 / weightp=2 / keyint=48 / keyint_min=25 / scenecut=0 / intra_refresh=0 / rc_lookahead=40 / rc=crf / mbtree=1 / crf=23.0 / qcomp=0.60 / qpmin=0 / qpmax=69 / qpstep=4 / vbv_maxrate=6000 / vbv_bufsize=6000 / crf_max=0.0 / nal_hrd=none / filler=0 / ip_ratio=1.40 / aq=1:0.60 Default : Yes Forced : No Audio ID : 2 Format : AAC LC Format/Info : Advanced Audio Codec Low Complexity Codec ID : A_AAC-2 Duration : 23 min 15 s Channel(s) : 2 channels Channel layout : L R Sampling rate : 48.0 kHz Frame rate : 46.875 FPS (1024 SPF) Compression mode : Lossy Delay relative to video : -42 ms Default : Yes Forced : No
02/25 09:00 特摄连载
HD 1080p from Prime Video. Use CBR bitrate mode. We are planning to upload all Prime Video Japan Dramas and Movies, we need your Support! Support Us Ali (Zhifubao / QR code): https://i.ibb.co/FWV2ggm/1660626347125.png PayPalMe: https://www.paypal.com/paypalme/sakuragikenji ETH (ERC20): 0xea3286E176099E8C9aBaf25A0edf231374C04E89 USDT (BTC / OMNI): 1Lemw6fu5vG3NdvWGxDxsPX7T7yUb3rNzu General Unique ID : 302325343103202821404412841798368367170 (0xE371BE3D4E6B920DA18F9DF4E71E1242) Complete name : Ohsama.Sentai.King.Ohger.EP49.1080p.AMZN.WEB-DL.DDP2.0.H.264-MagicStar.mkv Format : Matroska Format version : Version 4 File size : 1.42 GiB Duration : 22 min 31 s Overall bit rate mode : Constant Overall bit rate : 9 004 kb/s Frame rate : 23.976 FPS Encoded date : 2024-02-21 01:58:33 UTC Writing application : mkvmerge v50.0.0 ('Awakenings') 64-bit Writing library : libebml v1.4.0 + libmatroska v1.6.2 Cover : Yes Attachments : cover.jpg Video ID : 1 Format : AVC Format/Info : Advanced Video Codec Format profile : High@L4 Format settings : CABAC / 4 Ref Frames Format settings, CABAC : Yes Format settings, Reference fra : 4 frames Codec ID : V_MPEG4/ISO/AVC Duration : 22 min 31 s Bit rate mode : Constant Bit rate : 8 775 kb/s Nominal bit rate : 10 000 kb/s Width : 1 920 pixels Height : 1 080 pixels Display aspect ratio : 16:9 Frame rate mode : Constant Frame rate : 23.976 (24000/1001) FPS Color space : YUV Chroma subsampling : 4:2:0 Bit depth : 8 bits Scan type : Progressive Bits/(Pixel*Frame) : 0.176 Stream size : 1.38 GiB (97%) Default : Yes Forced : No Color range : Limited Color primaries : BT.709 Transfer characteristics : BT.709 Matrix coefficients : BT.709 Audio ID : 2 Format : E-AC-3 Format/Info : Enhanced AC-3 Commercial name : Dolby Digital Plus Codec ID : A_EAC3 Duration : 22 min 31 s Bit rate mode : Constant Bit rate : 224 kb/s Channel(s) : 2 channels Channel layout : L R Sampling rate : 48.0 kHz Frame rate : 31.250 FPS (1536 SPF) Compression mode : Lossy Stream size : 36.1 MiB (2%) Title : 日本語 [オリジナル] Language : Japanese Service kind : Complete Main Default : Yes Forced : No
02/25 09:00 特摄连载
HD 1080p from Prime Video. Use CBR bitrate mode. We are planning to upload all Prime Video Japan Dramas and Movies, we need your Support! Support Us Ali (Zhifubao / QR code): https://i.ibb.co/FWV2ggm/1660626347125.png PayPalMe: https://www.paypal.com/paypalme/sakuragikenji ETH (ERC20): 0xea3286E176099E8C9aBaf25A0edf231374C04E89 USDT (BTC / OMNI): 1Lemw6fu5vG3NdvWGxDxsPX7T7yUb3rNzu General Unique ID : 207189949338345074937914007104287156344 (0x9BDF552FCDCB0CD2EFCF6DB9F57C2878) Complete name : Kamen.Rider.Gotchard.EP23.1080p.AMZN.WEB-DL.DDP2.0.H.264-MagicStar.mkv Format : Matroska Format version : Version 4 File size : 1.47 GiB Duration : 23 min 31 s Overall bit rate mode : Constant Overall bit rate : 8 968 kb/s Frame rate : 23.976 FPS Encoded date : 2024-02-21 01:55:11 UTC Writing application : mkvmerge v50.0.0 ('Awakenings') 64-bit Writing library : libebml v1.4.0 + libmatroska v1.6.2 Cover : Yes Attachments : cover.jpg Video ID : 1 Format : AVC Format/Info : Advanced Video Codec Format profile : High@L4 Format settings : CABAC / 4 Ref Frames Format settings, CABAC : Yes Format settings, Reference fra : 4 frames Codec ID : V_MPEG4/ISO/AVC Duration : 23 min 31 s Bit rate mode : Constant Bit rate : 8 736 kb/s Nominal bit rate : 10 000 kb/s Width : 1 920 pixels Height : 1 080 pixels Display aspect ratio : 16:9 Frame rate mode : Constant Frame rate : 23.976 (24000/1001) FPS Color space : YUV Chroma subsampling : 4:2:0 Bit depth : 8 bits Scan type : Progressive Bits/(Pixel*Frame) : 0.176 Stream size : 1.44 GiB (97%) Default : Yes Forced : No Color range : Limited Color primaries : BT.709 Transfer characteristics : BT.709 Matrix coefficients : BT.709 Audio ID : 2 Format : E-AC-3 Format/Info : Enhanced AC-3 Commercial name : Dolby Digital Plus Codec ID : A_EAC3 Duration : 23 min 31 s Bit rate mode : Constant Bit rate : 224 kb/s Channel(s) : 2 channels Channel layout : L R Sampling rate : 48.0 kHz Frame rate : 31.250 FPS (1536 SPF) Compression mode : Lossy Stream size : 37.7 MiB (2%) Title : 日本語 [オリジナル] Language : Japanese Service kind : Complete Main Default : Yes Forced : No
02/25 09:00 特摄连载
神作,无需多言。德版BOX1-6合集版全集打包。蓝宝石之谜英版1080P第38集有人反应开头几秒有花屏,这个是属于原盘资源问题,所以这个问题暂时不能解决,而且38集除了开头,其他地方并不影响观看 片名:怪物/魔刹/Monster/モンスター 集数:01-74TV全集+特别篇 音轨:FLAC 2.0 日语+FLAC 5.1德语 字幕:德语内封 压制:纸欣dream 文件发布:DBD制作组 可以使用电子邮箱联系本组,电子邮箱:1121276396@qq.com 已经建立TG交流群,欢迎大家加入:https://t.me/DBD_Raws_Discussion 已经成立DBD分流Q群,欢迎大家加入分流大队:560823326 本组已有爱发电主页,希望大家有能力的可以贡献自己一份力量,谢谢大家支持 爱发电主页:https://afdian.net/@112127luji DBD制作组正在招募:翻译,时间轴,校对,字幕,美工,宣传,片源,特效,压制等成员,有兴趣的朋友欢迎加入DBD制作组:1040411052 聊天吹水群(特摄):746546998 聊天吹水群(动漫):740501700 B站主页1:https://space.bilibili.com/97177229 神圣路基艾尔 B站主页2:https://space.bilibili.com/476857955 神圣之路基艾尔 下载工具请使用:qbittorrent,uTorrent等正规下载工具上传,下载完成后请打开软件再尽可能多上传,人人为我,我为人人,让其他人能够尽可能快速地下载并保持上传。 下载地址: 夸克网盘:https://pan.quark.cn/s/eff57243f298
02/24 16:02 动画更新员
女武神驱动 -美人鱼- / VALKYRIE DRIVE -MERMAID- BDRip Rework 部分剧集内封评论音轨。 Certain episodes contain commentary tracks. 本次重制由来已久,起初只是旧版特典存在缺帧需要补压,可惜项目年久失修,制作人员均已退休,诸多事宜难以考证。随着时间推移,补压已成奢望,加之修复手段日新月异,于是干脆重制。重制的内容相比之前的版本,优化了对烂边、色度平面、线条和噪点的处理,并改良了编码。旧版合作字幕同样年久失修,因此此次重制并不携带字幕。需要字幕的观众可以从旧版获取,或前往字幕论坛自行寻觅。 原盘画质一言难尽,原生分辨率 720p。问题主要集中在色度平面上,线条有明显色度溢出和色度锯齿。另外全片多数画面边缘存在烂边,最严重时上下左右多达 8 像素。好在常规锯齿和色带并不明显,线条比较柔和,纹理强度一般,上述问题并没有给处理造成多少困难。处理上,我们进行了逆向拉伸重构、抗锯齿、去色带、补偿性锐化,然后针对色平面单独使用了神经网络滤镜进行修复,最后是自适应降噪。另外部分回忆桥段有过量的动噪(尤其是色度噪点),我们对此单独应用了组合降噪,以控制码率。至于烂边,由于亮暗间隔且数量过多,难以完全修复,我们以削弱难看观感为前提尽量进行了处理,相较于旧版已有明显提升,可惜极少数场景不论如何处理均会引入瑕疵(如第五组截图右下边缘),好在不是特别明显,因此取舍之后决定保留。 This rework has been a long time coming; initially, it was just about re-encoding missing frames in the old specials. Unfortunately, the project had been neglected for years, and the production staff had retired, making many details hard to verify. Over time, re-encoding became a luxury, and with restoration techniques constantly evolving, we decided to go for a full rework. Compared to the previous version, this rework has optimized the handling of dirty edges, chroma planes, lines, and noise, and improved the encoding. The old version's collaborative subtitles have also fallen into disrepair, so this rework does not include subtitles. Viewers in need of subtitles can obtain them from the old version or seek them out on subtitle forums. The quality of the source is a long story; its native resolution is 720p. The main issues are concentrated on the chroma planes, with noticeable chroma bleeding and chroma aliasing on the lines. Additionally, most scenes have dirty edges, with the worst cases affecting up to 8 pixels around the edges. Fortunately, conventional aliasing and color banding are not prominent, the lines are relatively soft, and the texture intensity is moderate, so the aforementioned issues did not pose much difficulty in processing. In terms of treatment, we performed descaling and reconstruction, anti-aliasing, de-banding, compensatory sharpening, and then used a neural network filter specifically for the chroma planes, followed by adaptive denoising. Additionally, some flashback sequences had excessive dynamic noise (especially chroma noise), for which we applied combined denoising to control the bitrate. As for the dirty edges, due to their frequent occurrence and the challenge of completely removing them, we aimed to mitigate their unsightly appearance as much as possible, resulting in a significant improvement over the old version. Unfortunately, in very few scenes, any treatment introduced flaws (such as in the bottom right corner of the fifth group of screenshots), but these were not particularly noticeable, so we decided to retain them after weighing the pros and cons. 感谢所有参与制作者 / Thanks to our participating members: 总监 / Script: 处女守 压制 / Encode: 敷岛魅零 整理 / Collate: 柊晶 发布 / Upload: 莲实玲音 分流 / Seed: VCB-Studio CDN 分流成员 感谢所有资源提供者 / Thanks to all resource providers: CDs: nstz@AnimeBytes VCB-Studio 已不再保证收集作品相关 CD 和扫图资源,详情请参见 https://vcb-s.com/archives/14331 。 Please refer to https://vcb-s.com/archives/14331 for more information about that VCB-Studio will no longer guarantee to include relevant CDs and scans. 本组(不)定期招募新成员。详情请参见 https://vcb-s.com/archives/16986 。 Please refer to https://vcb-s.com/archives/16986 about information of our (un)scheduled recruitment. 播放器教程索引: VCB-Studio 播放器推荐 中文字幕分享区: Anime 分享论坛 项目计划与列表: VCB-Studio 项目列表 特殊格式与说明: WebP 扫图说明 Comparison (right click on the image and open it in a new tab to see the full-size one) Source________________________________________________Encode
02/23 15:01 动画更新员
天国大魔境 / Heavenly Delusion BDRip 内封评论音轨。 The episodes contain commentary tracks. 这个项目与 SweetSub 合作,感谢他们精心制作的字幕。 This project is in collaboration with SweetSub . Thanks to them for elaborating Chinese subtitles. 《天国大魔境》的原生分辨率在 864.0p 左右,但是动画制作后期加入了过量锐化,导致线条有大量晕轮,同时也导致逆向拉伸的误差和结果较差。因此我们本次并未使用逆向拉伸,而是使用高级抗锯齿配合强力的去晕轮手段来处理线条,然后使用补偿性锐化提升观感。至于平面画质,原盘上下两卷的差别极大。上卷码率比正常稍低,平面质量还行,只在动态较强的镜头处有一些欠码;下卷由于塞入了较多特典,正片的码率极低,几乎只有正常的一半,平面质量也因此下滑严重,随处可见欠码和烂噪。对于下卷我们采取了更激进的降噪和去色带手段,同时对质量较差的动态噪点进行了削弱。 注意本片部分集数的评论音轨比正片时长更长,BD 给超长部分补充了黑屏加提示信息的画面,考虑到这部分无实质内容,并且照顾正常观看时的体验,我们制作时去掉了这部分超长的视频和主音轨。 The source has a native resolution of about 564.0p. However, the descaling and reconstruction process doesn't lead to a satisfactory result, because of the aliasing caused by too much sharpening added into the video during the later stage of production. So this time, we instead applied strong anti-aliasing and de-ringing processes for the lines, then used compensatory sharpening to preserve the watching experience. The quality of flat areas differs in 2 volumes of the source. In volume 1, it was moderate, since the bitrate is slightly lower than normal and the lack only occurs in scenes with intense motion. In volume 2, however, too many specials caused the main part's bitrate extremely low, only about half of normal. The severe deterioration of flat areas like the lack of bitrate and the grain blocking can be seen everywhere. We used a more aggressive denoising and de-banding process and weakened the low-quality motion noise. In certain episodes, the commentary track is lengthier than the main feature. So the BD extended a black screen with informational prompts. But we removed this part (and the corresponding main audio track) to keep a usual watching experience because it doesn't have meaningful content. 感谢所有参与制作者 / Thanks to our participating members: 总监 / Script: sinsanction 压制 / Encode: Cheshire 整理 / Collate: LKey Eden 发布 / Upload: arr2 分流 / Seed: VCB-Studio CDN 分流成员 感谢所有资源提供者 / Thanks to all resource providers: CDs: Odin@U2, Sheldonsuckz@HAYAKU Scans: Odin@U2 VCB-Studio 已不再保证收集作品相关 CD 和扫图资源,详情请参见 https://vcb-s.com/archives/14331 。 Please refer to https://vcb-s.com/archives/14331 for more information about that VCB-Studio will no longer guarantee to include relevant CDs and scans. 本组(不)定期招募新成员。详情请参见 https://vcb-s.com/archives/16986 。 Please refer to https://vcb-s.com/archives/16986 about information of our (un)scheduled recruitment. 播放器教程索引: VCB-Studio 播放器推荐 中文字幕分享区: Anime 分享论坛 项目计划与列表: VCB-Studio 项目列表 特殊格式与说明: WebP 扫图说明 Comparison (right click on the image and open it in a new tab to see the full-size one) Source________________________________________________Encode
02/22 16:01 动画更新员
神作,无需多言。之前已经压过德版BOX1-3:https://share.dmhy.org/topics/view/660400_DBD-Raws_Monster_01-36TV_BOX1-3_Ger_Ver_1080P_BDRip_HEVC-10bit_FLACx2_MKV.html 现在压BOX4-6,全集已经压制完了,过段时间给大家打包全集发布。 片名:怪物/魔刹/Monster/モンスター 集数:37-74TV+特别篇 音轨:FLAC 2.0 日语+FLAC 5.1德语 字幕:无 压制:纸欣dream 文件发布:DBD制作组 可以使用电子邮箱联系本组,电子邮箱:1121276396@qq.com 已经建立TG交流群,欢迎大家加入:https://t.me/DBD_Raws_Discussion 已经成立DBD分流Q群,欢迎大家加入分流大队:560823326 本组已有爱发电主页,希望大家有能力的可以贡献自己一份力量,谢谢大家支持 爱发电主页:https://afdian.net/@112127luji DBD制作组正在招募:翻译,时间轴,校对,字幕,美工,宣传,片源,特效,压制等成员,有兴趣的朋友欢迎加入DBD制作组:1040411052 聊天吹水群(特摄):746546998 聊天吹水群(动漫):740501700 B站主页1:https://space.bilibili.com/97177229 神圣路基艾尔 B站主页2:https://space.bilibili.com/476857955 神圣之路基艾尔 下载工具请使用:qbittorrent,uTorrent等正规下载工具上传,下载完成后请打开软件再尽可能多上传,人人为我,我为人人,让其他人能够尽可能快速地下载并保持上传。 下载地址: 夸克网盘:https://pan.quark.cn/s/425826341f1d
02/22 15:01 动画更新员