旋风动漫BT资源发布索引 | 汇聚动漫BT/ED资源
为您找到相关结果个     结果不正确?请到这里反馈!
HD 1080p from Prime Video. Use CBR bitrate mode. General Unique ID : 298517442439054761776870853554337755470 (0xE0945E3DDE247F65E857334E1470314E) Complete name : Okusama.wa.Toriatsukai.Chuui.2021.1080p.AMZN.WEB-DL.DDP5.1.H.264-MagicStar.mkv Format : Matroska Format version : Version 4 File size : 6.28 GiB Duration : 2 h 0 min Overall bit rate mode : Constant Overall bit rate : 7 483 kb/s Encoded date : UTC 2022-06-01 06:11:40 Writing application : mkvmerge v50.0.0 ('Awakenings') 64-bit Writing library : libebml v1.4.0 + libmatroska v1.6.2 Cover : Yes Attachments : cover.png Video ID : 1 Format : AVC Format/Info : Advanced Video Codec Format profile : High@L4 Format settings : CABAC / 4 Ref Frames Format settings, CABAC : Yes Format settings, Reference fra : 4 frames Codec ID : V_MPEG4/ISO/AVC Duration : 2 h 0 min Bit rate mode : Constant Bit rate : 6 840 kb/s Nominal bit rate : 10 000 kb/s Width : 1 920 pixels Height : 800 pixels Display aspect ratio : 2.40:1 Frame rate mode : Constant Frame rate : 23.976 (24000/1001) FPS Color space : YUV Chroma subsampling : 4:2:0 Bit depth : 8 bits Scan type : Progressive Bits/(Pixel*Frame) : 0.186 Stream size : 5.74 GiB (91%) Default : Yes Forced : No Color range : Limited Color primaries : BT.709 Transfer characteristics : BT.709 Matrix coefficients : BT.709 Audio ID : 2 Format : E-AC-3 Format/Info : Enhanced AC-3 Commercial name : Dolby Digital Plus Codec ID : A_EAC3 Duration : 2 h 0 min Bit rate mode : Constant Bit rate : 640 kb/s Channel(s) : 6 channels Channel layout : L R C LFE Ls Rs Sampling rate : 48.0 kHz Frame rate : 31.250 FPS (1536 SPF) Compression mode : Lossy Stream size : 550 MiB (9%) Language : Japanese Service kind : Complete Main Default : Yes Forced : No
06/02 02:03 日剧更新了
HD 1080p from Prime Video. Use CBR bitrate mode. General Unique ID : 83994326699323686770534043210627041543 (0x3F30B8097ECDB1C495283B819EAA4907) Complete name : Kasouken.no.Onna.The.Movie.2021.AMZN.WEB-DL.DDP5.1.H.264-MagicStar.mkv Format : Matroska Format version : Version 4 File size : 5.54 GiB Duration : 1 h 49 min Overall bit rate mode : Constant Overall bit rate : 7 275 kb/s Encoded date : UTC 2022-04-10 20:59:02 Writing application : mkvmerge v50.0.0 ('Awakenings') 64-bit Writing library : libebml v1.4.0 + libmatroska v1.6.2 Cover : Yes Attachments : cover.png Video ID : 1 Format : AVC Format/Info : Advanced Video Codec Format profile : High@L4 Format settings : CABAC / 4 Ref Frames Format settings, CABAC : Yes Format settings, Reference fra : 4 frames Codec ID : V_MPEG4/ISO/AVC Duration : 1 h 49 min Bit rate mode : Constant Bit rate : 6 633 kb/s Nominal bit rate : 10 000 kb/s Width : 1 920 pixels Height : 1 040 pixels Display aspect ratio : 1.85:1 Frame rate mode : Constant Frame rate : 23.976 (24000/1001) FPS Color space : YUV Chroma subsampling : 4:2:0 Bit depth : 8 bits Scan type : Progressive Bits/(Pixel*Frame) : 0.139 Stream size : 5.06 GiB (91%) Default : Yes Forced : No Color range : Limited Color primaries : BT.709 Transfer characteristics : BT.709 Matrix coefficients : BT.709 Audio ID : 2 Format : E-AC-3 Format/Info : Enhanced AC-3 Commercial name : Dolby Digital Plus Codec ID : A_EAC3 Duration : 1 h 49 min Bit rate mode : Constant Bit rate : 640 kb/s Channel(s) : 6 channels Channel layout : L R C LFE Ls Rs Sampling rate : 48.0 kHz Frame rate : 31.250 FPS (1536 SPF) Compression mode : Lossy Stream size : 499 MiB (9%) Language : Japanese Service kind : Complete Main Default : Yes Forced : No
06/02 02:03 日剧更新了
美国Saban公司于1993年购自日本东映《超级战队系列》的版权. 内地国语版共引入6季(老三季,第三季和Alien算一季,Zeo,Turbo),由上海电影制片厂译制.1996年7月2日在上海东方电视台首播,第51集后改为绿叶的教育电视台播出. 包含老三季(第三季和Alien算一季),Zeo,Turbo共250集+in Space和95剧场版原盘. 国语单音轨,不包含英语音轨和字幕. 百度盘下载地址: MKV版:https://pan.baidu.com/s/1skTFQhB 原盘版(稍后发布bt): https://pan.baidu.com/s/1o7KKucq https://pan.baidu.com/s/1c0ERQW4 音乐资源:https://pan.baidu.com/s/1i4QSKGP 旧SABAN时代美版和日版对应列表(内地后四季未引入): 中文名称 英文名称 首播期间 日本原著 播放集数 集数总算 恐龙战队 (第一季) Mighty Morphin Power Rangers season 1 1993年 恐龙战队兽连者 60集 60集 恐龙战队 (第二季) Mighty Morphin Power Rangers season 2 1994年 五星战队大连者 52集 112集 恐龙战队 (第三季) Mighty Morphin Power Rangers season 3 1995年 忍者战队隐连者 33集 145集 外星战队 Mighty Morphin Alien Rangers 1996年 忍者战队隐连者 10集 155集 西奥战队 Power Rangers: Zeo 1996年 超力战队王连者 50集 205集 恐龙战队 涡轮 Power Rangers: Turbo 1997年 激走战队车连者 45集 250集 恐龙战队 太空 Power Rangers in Space 1998年 電磁戰隊百萬連者 43集 293集 恐龙战队 失落银河 Power Rangers: Lost Galaxy 1999年 星兽战队银河人 45集 338集 恐龙战队 光速救援 Power Rangers: Lightspeed Rescue 2000年 救急战队GOGOV 40集 378集 恐龙战队 时间力量 Power Rangers: Time Force 2001年 未来战队时连者 40集 418集 预览图: 哈哈!被封印了一万年我终于自由了,地球宇宙我要毁灭你! 危险!我们需要一只精锐的小分队来和丽达魔王较量! 内容简介: 恐龙战队 美版介绍: 布莱恩·斯帕塞执导的一部科幻动作片,讲述维持和平保护地球的恐龙战队,这次要面对的是邪恶的怪物和一心征服全人类的大魔头。连番激战在所难免,内容还是离开不了原有科幻片的固有的模式,但本片在特技处理方面还是别具一格的。恐龙战队分为日版和美版,美版战队POWER RANGERS系列开山之作,该片是由美国SABAN公司1993年向日本东映公司买下该公司的《超级战队系列》的海外改编版权后而来,战斗场面大多剪辑自日版。 由于两位宇航员的好奇心,宇宙的邪恶之源丽达女王和她的手下从封印中逃脱,并在月球上建立了基地,意图征服地球。地球上,太空人佐藤察觉到了丽达女王的侵略野心,于是命令机器人阿尔法立即从美国天使丛林高中传唤了杰森、曲妮、比利、扎克、金伯莉等五名少年到指挥中心。佐藤向他们说明了地球的危机,并将五个变身器交给了他们,每个变身器上镶嵌着变身能量之源——恐龙能源币,让他们变身成为身着红、黄、蓝、黑、粉红五种不同颜色的超能战士。这样,地球上第一代恐龙战队诞生了。五名少年不仅英勇善战,而且有佐藤开发的强大装备——巨型战斗机器恐龙佐德,五架恐龙佐德可以组合成大机器人超级佐德。 丽达女王并不死心,她抢在佐藤之前夺走了第六块恐龙能源币——最强大的绿衣战士能源,并开始寻找绿衣战士的合适人选。于是,刚刚来到天使丛林高中的转校生汤米·奥利弗成了丽达的目标。她用黑暗之剑控制了汤米的意识。绿衣战士无疑对恐龙战队造成了重创,队员们几乎无招架之力。在佐藤的提示下,队员们明白了只要破坏掉黑暗之剑,汤米就能恢复善良的本性。经过一场战斗,汤米最终恢复了本性,并答应加入恐龙战队。 然而,丽达女王并不会轻易让恐龙战队得到强援,她使出了杀手锏——破坏绿衣战士的变身领域,想将汤米以及绿衣战士彻底毁灭。为了保护汤米,佐藤将绿衣战士的能量转移到了杰森身上,从此大龙神可以由红衣战士召唤,而汤米则暂时退出了超能战士生涯。 值得一提的是,由于美国的“政治正确”,战队中出现了两名女性队员,还必须得有亚裔和黑人队员,这个传统也一直保留到了现在。而黄衣战士在日版中为男性,而美版则是女性,但是美版大量的引用了日版战斗镜头,所以黄衣并没有和粉衣战士一样有裙子。不过在后来的《天兆之力》中黄衣被加上了裙子。 内地国语版配音名单: 杰森(红)—— 第一季 : 王卫 第二季:吕梁 曲妮(黄)——黄笑燕 扎克(黑)——传缨 金伯利(粉)——王苏 比利(蓝)——黄浩(SMG) 佐藤(Zordon) —— 第一季 : 崔杰 第二季:马冠英 汤米·奥利弗(Tommy 绿) —— 郝平 布尔克 —— 第一季 : 袁国庆 第二季 : 刘宁 斯戈尔 —— 郝平 丽达女王 ——第一季 : 刘婉玲 第二季-第五季:倪以临 OP歌词: Go Go Power Rangers Go Go Power Rangers Go Go Power Rangers Mighty Morphin Power Rangers Go Go Power Rangers Go Go Power Rangers Go Go Power Rangers You Mighty Morphin Power Rangers K.N.L.A.万岁!二次元人民大团结万岁! 本帖原创自动漫花园资源网 dmhy.anoneko.com
01/18 00:08 特摄连载
HD 1080p from Prime Video. Upload original stream version with DDP5.1. General Unique ID : 222461172947635015882670873679147017878 (0xA75C76A449B9C2F930EB7E9EDB9FA696) Complete name : Kyou.Kara.Ore.Wa.2020.1080p.WEB-DL.DDP5.1.H.264-MagicStar.mkv Format : Matroska Format version : Version 4 File size : 5.54 GiB Duration : 1 h 54 min Overall bit rate : 6 952 kb/s Encoded date : UTC 2021-01-24 08:53:43 Writing application : mkvmerge v50.0.0 ('Awakenings') 64-bit Writing library : libebml v1.4.0 + libmatroska v1.6.2 Cover : Yes Attachments : cover.png Video ID : 1 Format : AVC Format/Info : Advanced Video Codec Format profile : High@L4 Format settings : CABAC / 4 Ref Frames Format settings, CABAC : Yes Format settings, Reference fra : 4 frames Codec ID : V_MPEG4/ISO/AVC Duration : 1 h 54 min Bit rate : 6 310 kb/s Width : 1 920 pixels Height : 1 040 pixels Display aspect ratio : 1.85:1 Frame rate mode : Constant Frame rate : 23.976 (24000/1001) FPS Color space : YUV Chroma subsampling : 4:2:0 Bit depth : 8 bits Scan type : Progressive Bits/(Pixel*Frame) : 0.132 Stream size : 5.03 GiB (91%) Default : Yes Forced : No Color range : Limited Color primaries : BT.709 Transfer characteristics : BT.709 Matrix coefficients : BT.709 Audio ID : 2 Format : E-AC-3 Format/Info : Enhanced AC-3 Commercial name : Dolby Digital Plus Codec ID : A_EAC3 Duration : 1 h 54 min Bit rate mode : Constant Bit rate : 640 kb/s Channel(s) : 6 channels Channel layout : L R C LFE Ls Rs Sampling rate : 48.0 kHz Frame rate : 31.250 FPS (1536 SPF) Compression mode : Lossy Stream size : 522 MiB (9%) Language : Japanese Service kind : Complete Main Default : Yes Forced : No
01/24 20:27 日剧更新了
HD 1040p from official website. Enjoy!!~ General Unique ID : 249690316289150945701250251641174844844 (0xBBD89B0EECAB1A709CDF7090182365AC) Complete name : [MagicStar] Kyou Kara Ore wa!! The Movie [WEBDL] [1040p].mkv Format : Matroska Format version : Version 2 File size : 2.08 GiB Duration : 1 h 54 min Overall bit rate : 2 614 kb/s Encoded date : UTC 2021-01-19 19:21:19 Writing application : mkvmerge v5.7.0 ('The Whirlwind') built on Jul 8 2012 20:08:51 Writing library : libebml v1.2.3 + libmatroska v1.3.0 Video ID : 1 Format : AVC Format/Info : Advanced Video Codec Format profile : High@L4 Format settings : CABAC / 4 Ref Frames Format settings, CABAC : Yes Format settings, Reference fra : 4 frames Muxing mode : Header stripping Codec ID : V_MPEG4/ISO/AVC Duration : 1 h 54 min Width : 1 920 pixels Height : 1 040 pixels Display aspect ratio : 1.85:1 Frame rate mode : Constant Frame rate : 23.976 (23976/1000) FPS Color space : YUV Chroma subsampling : 4:2:0 Bit depth : 8 bits Scan type : Progressive Default : Yes Forced : No Duration_Source : General_Duration Audio ID : 2 Format : AAC LC Format/Info : Advanced Audio Codec Low Complexity Codec ID : A_AAC-2 Duration : 1 h 54 min Channel(s) : 2 channels Channel layout : L R Sampling rate : 48.0 kHz Frame rate : 46.875 FPS (1024 SPF) Compression mode : Lossy Language : Japanese Default : Yes Forced : No Duration_Source : General_Duration
01/21 05:35 日剧更新了
[SUBPIG][Last Cop The Movie 2017][720p] 百度云下载地址: http://www.jpdrama.cn/forum.php?mod=viewthread&tid=1187952 ================================ 論壇: www.jpdrama.cn 微博: www.weibo.com/zhuzhuriju 最后的警察/电影版 ラストコップ THE MOVIE 导演: 猪股隆一 编剧: 佐藤友治 主演: 唐泽寿明 / 洼田正孝 / 佐佐木希 / 藤木直人 / 小日向文世 / 和久井映见 / 黑川智花 / 竹内凉真 / 松尾谕 / 樱井日奈子 / 武田玲奈 / 伊藤沙莉 / 宫川一朗太 / 田山凉成 / 儿岛雄一 类型: 动作 制片国家/地区: 日本 语言: 日语 发售日期: 2017-11-03 又名: Last Cop: The Movie 【简介】 20世纪80年代,横滨中央署刑事课刑警京极浩介(唐泽寿明 饰)沿袭着昭和时代前辈们的粗犷作风,不顾身家性命一次次冲锋在办案现场的最前沿。直到他在一次任务中遭遇爆炸事件,这位热血警察才彻底沉寂下来。他躺在病床上,一睡便是三十年。   转眼来到了21世纪的第十个年头,浩介居然毫无征兆地醒来了,周遭世界天翻地覆的改变已然令他瞠目结舌,周遭人物的变换流转又使他恍如隔世。凭借当年后辈的帮助,浩介回归警队,并且与平成一代的草食系刑警望月亮太(洼田正孝 饰)结成搭档。本就在性格和年龄上存在巨大鸿沟的两个人,加上长达三十年的记忆断层,可以想见他们的组合必然矛盾不断。   这一日,横滨中央警署引入的人工智能引起巨大的事件,甚至导致日本走向毁灭的边缘,为了阻止这场史无前例的危机,京极和望月携手出击!
11/09 21:18 日剧更新了