旋风动漫BT资源发布索引 | 汇聚动漫BT/ED资源
HD 1080p from TTFC. General Unique ID : 26169503178016069075819325709485575027 (0x13B0101F7587BC889488E30C78A78B73) Complete name : [MagicStar] Ohsama Sentai King-Ohger EP30 [WEBDL] [1080p].mkv Format : Matroska Format version : Version 4 File size : 678 MiB Duration : 23 min 30 s Overall bit rate : 4 031 kb/s Frame rate : 23.976 FPS Writing application : Lavf57.48.101 Writing library : Lavf57.48.101 DATE : 2023-09-24T09:00:52.5796487+08:00 Video ID : 1 Format : AVC Format/Info : Advanced Video Codec Format profile : High@L4 Format settings : CABAC / 4 Ref Frames Format settings, CABAC : Yes Format settings, Reference fra : 4 frames Format settings, GOP : M=3, N=48 Codec ID : V_MPEG4/ISO/AVC Duration : 23 min 30 s Width : 1 920 pixels Height : 1 080 pixels Display aspect ratio : 16:9 Frame rate mode : Constant Frame rate : 23.976 (24000/1001) FPS Color space : YUV Chroma subsampling : 4:2:0 Bit depth : 8 bits Scan type : Progressive Writing library : x264 core 148 Encoding settings : cabac=1 / ref=4 / deblock=1:1:1 / analyse=0x3:0x113 / me=hex / subme=7 / psy=1 / psy_rd=0.40:0.00 / mixed_ref=1 / me_range=16 / chroma_me=1 / trellis=1 / 8x8dct=1 / cqm=0 / deadzone=21,11 / fast_pskip=1 / chroma_qp_offset=-2 / threads=18 / lookahead_threads=3 / sliced_threads=0 / nr=0 / decimate=1 / interlaced=0 / bluray_compat=0 / constrained_intra=0 / bframes=2 / b_pyramid=2 / b_adapt=0 / b_bias=0 / direct=1 / weightb=1 / open_gop=0 / weightp=2 / keyint=48 / keyint_min=25 / scenecut=0 / intra_refresh=0 / rc_lookahead=40 / rc=crf / mbtree=1 / crf=23.0 / qcomp=0.60 / qpmin=0 / qpmax=69 / qpstep=4 / vbv_maxrate=6000 / vbv_bufsize=6000 / crf_max=0.0 / nal_hrd=none / filler=0 / ip_ratio=1.40 / aq=1:0.60 Default : Yes Forced : No Audio ID : 2 Format : AAC LC Format/Info : Advanced Audio Codec Low Complexity Codec ID : A_AAC-2 Duration : 23 min 30 s Channel(s) : 2 channels Channel layout : L R Sampling rate : 48.0 kHz Frame rate : 46.875 FPS (1024 SPF) Compression mode : Lossy Delay relative to video : -42 ms Default : Yes Forced : No
昨天 07:03 特摄连载
HD 1080p from TTFC. General Unique ID : 150948264745941239259570204354592813160 (0x718F940C4DEC44457961FE060B6EB068) Complete name : [MagicStar] Kamen Rider Gotchard EP04 [WEBDL] [1080p].mkv Format : Matroska Format version : Version 4 File size : 517 MiB Duration : 23 min 30 s Overall bit rate : 3 078 kb/s Frame rate : 23.976 FPS Writing application : Lavf57.48.101 Writing library : Lavf57.48.101 DATE : 2023-09-24T08:30:47.5613991+08:00 Video ID : 1 Format : AVC Format/Info : Advanced Video Codec Format profile : High@L4 Format settings : CABAC / 4 Ref Frames Format settings, CABAC : Yes Format settings, Reference fra : 4 frames Format settings, GOP : M=3, N=48 Codec ID : V_MPEG4/ISO/AVC Duration : 23 min 29 s Width : 1 920 pixels Height : 1 080 pixels Display aspect ratio : 16:9 Frame rate mode : Constant Frame rate : 23.976 (24000/1001) FPS Color space : YUV Chroma subsampling : 4:2:0 Bit depth : 8 bits Scan type : Progressive Writing library : x264 core 148 Encoding settings : cabac=1 / ref=4 / deblock=1:1:1 / analyse=0x3:0x113 / me=hex / subme=7 / psy=1 / psy_rd=0.40:0.00 / mixed_ref=1 / me_range=16 / chroma_me=1 / trellis=1 / 8x8dct=1 / cqm=0 / deadzone=21,11 / fast_pskip=1 / chroma_qp_offset=-2 / threads=18 / lookahead_threads=3 / sliced_threads=0 / nr=0 / decimate=1 / interlaced=0 / bluray_compat=0 / constrained_intra=0 / bframes=2 / b_pyramid=2 / b_adapt=0 / b_bias=0 / direct=1 / weightb=1 / open_gop=0 / weightp=2 / keyint=48 / keyint_min=25 / scenecut=0 / intra_refresh=0 / rc_lookahead=40 / rc=crf / mbtree=1 / crf=23.0 / qcomp=0.60 / qpmin=0 / qpmax=69 / qpstep=4 / vbv_maxrate=6000 / vbv_bufsize=6000 / crf_max=0.0 / nal_hrd=none / filler=0 / ip_ratio=1.40 / aq=1:0.60 Default : Yes Forced : No Audio ID : 2 Format : AAC LC Format/Info : Advanced Audio Codec Low Complexity Codec ID : A_AAC-2 Duration : 23 min 30 s Channel(s) : 2 channels Channel layout : L R Sampling rate : 48.0 kHz Frame rate : 46.875 FPS (1024 SPF) Compression mode : Lossy Delay relative to video : -42 ms Default : Yes Forced : No
09/24 08:42 特摄连载
HD 1080p from Youtube official channel. English subtitles added. English dubbed version added. General Unique ID : 226872938618186377543689562678879703780 (0xAAAE237BA7E8DB18749CFB3CCDB9D2E4) Complete name : [MagicStar] Ultraman Blazar EP11 [WEBDL] [1080p] [YOUTUBE] [JPN_ENG_DUB].mkv Format : Matroska Format version : Version 4 File size : 535 MiB Duration : 29 min 11 s Overall bit rate : 2 564 kb/s Frame rate : 23.976 FPS Encoded date : 2023-09-23 06:38:47 UTC Writing application : mkvmerge v50.0.0 ('Awakenings') 64-bit Writing library : libebml v1.4.0 + libmatroska v1.6.2 Video ID : 1 Format : AVC Format/Info : Advanced Video Codec Format profile : High@L4 Format settings : CABAC / 3 Ref Frames Format settings, CABAC : Yes Format settings, Reference fra : 3 frames Codec ID : V_MPEG4/ISO/AVC Duration : 29 min 11 s Bit rate : 2 305 kb/s Width : 1 920 pixels Height : 1 080 pixels Display aspect ratio : 16:9 Frame rate mode : Constant Frame rate : 23.976 (24000/1001) FPS Color space : YUV Chroma subsampling : 4:2:0 Bit depth : 8 bits Scan type : Progressive Bits/(Pixel*Frame) : 0.046 Stream size : 481 MiB (90%) Writing library : x264 core 155 r2901 7d0ff22 Default : Yes Forced : No Color range : Limited Color primaries : BT.709 Transfer characteristics : BT.709 Matrix coefficients : BT.709 Audio #1 ID : 2 Format : AAC LC Format/Info : Advanced Audio Codec Low Complexity Codec ID : A_AAC-2 Duration : 29 min 11 s Bit rate : 128 kb/s Channel(s) : 2 channels Channel layout : L R Sampling rate : 44.1 kHz Frame rate : 43.066 FPS (1024 SPF) Compression mode : Lossy Stream size : 26.7 MiB (5%) Language : Japanese Default : Yes Forced : No Audio #2 ID : 3 Format : AAC LC Format/Info : Advanced Audio Codec Low Complexity Codec ID : A_AAC-2 Duration : 29 min 11 s Bit rate : 128 kb/s Channel(s) : 2 channels Channel layout : L R Sampling rate : 44.1 kHz Frame rate : 43.066 FPS (1024 SPF) Compression mode : Lossy Stream size : 26.7 MiB (5%) Language : English Default : No Forced : No
09/24 08:42 特摄连载
HD 1080p from Prime Video. Use CBR bitrate mode. We are planning to upload all Prime Video Japan Dramas and Movies, we need your Support! Support Us Ali (Zhifubao / QR code): https://i.ibb.co/FWV2ggm/1660626347125.png PayPalMe: https://www.paypal.com/paypalme/sakuragikenji ETH (ERC20): 0xea3286E176099E8C9aBaf25A0edf231374C04E89 USDT (BTC / OMNI): 1Lemw6fu5vG3NdvWGxDxsPX7T7yUb3rNzu General Unique ID : 114473558341789035244731768254612201666 (0x561ECE2DB7CDCE1E7BCDB156724160C2) Complete name : Ultraman.Blazar.EP10.1080p.AMZN.WEB-DL.DDP2.0.H.264-MagicStar.mkv Format : Matroska Format version : Version 4 File size : 1.59 GiB Duration : 24 min 35 s Overall bit rate mode : Constant Overall bit rate : 9 238 kb/s Frame rate : 23.976 FPS Encoded date : 2023-09-22 04:15:39 UTC Writing application : mkvmerge v50.0.0 ('Awakenings') 64-bit Writing library : libebml v1.4.0 + libmatroska v1.6.2 Cover : Yes Attachments : cover.png Video ID : 1 Format : AVC Format/Info : Advanced Video Codec Format profile : High@L4 Format settings : CABAC / 4 Ref Frames Format settings, CABAC : Yes Format settings, Reference fra : 4 frames Codec ID : V_MPEG4/ISO/AVC Duration : 24 min 35 s Bit rate mode : Constant Bit rate : 9 009 kb/s Nominal bit rate : 10 000 kb/s Width : 1 920 pixels Height : 1 080 pixels Display aspect ratio : 16:9 Frame rate mode : Constant Frame rate : 23.976 (24000/1001) FPS Color space : YUV Chroma subsampling : 4:2:0 Bit depth : 8 bits Scan type : Progressive Bits/(Pixel*Frame) : 0.181 Stream size : 1.55 GiB (98%) Default : Yes Forced : No Color range : Limited Color primaries : BT.709 Transfer characteristics : BT.709 Matrix coefficients : BT.709 Audio ID : 2 Format : E-AC-3 Format/Info : Enhanced AC-3 Commercial name : Dolby Digital Plus Codec ID : A_EAC3 Duration : 24 min 35 s Bit rate mode : Constant Bit rate : 224 kb/s Channel(s) : 2 channels Channel layout : L R Sampling rate : 48.0 kHz Frame rate : 31.250 FPS (1536 SPF) Compression mode : Lossy Stream size : 39.4 MiB (2%) Title : 日本語 [オリジナル] Language : Japanese Service kind : Complete Main Default : Yes Forced : No
09/22 21:43 特摄连载
HD 1080p from Prime Video. Use CBR bitrate mode. We are planning to upload all Prime Video Japan Dramas and Movies, we need your Support! Support Us Ali (Zhifubao / QR code): https://i.ibb.co/FWV2ggm/1660626347125.png PayPalMe: https://www.paypal.com/paypalme/sakuragikenji ETH (ERC20): 0xea3286E176099E8C9aBaf25A0edf231374C04E89 USDT (BTC / OMNI): 1Lemw6fu5vG3NdvWGxDxsPX7T7yUb3rNzu General Unique ID : 274228487980019790364370713710030195367 (0xCE4E7C543EB35B6813211DA98EA78AA7) Complete name : Ohsama.Sentai.King.Ohger.EP29.1080p.AMZN.WEB-DL.DDP2.0.H.264-MagicStar.mkv Format : Matroska Format version : Version 4 File size : 1.55 GiB Duration : 23 min 32 s Overall bit rate mode : Constant Overall bit rate : 9 447 kb/s Frame rate : 23.976 FPS Encoded date : 2023-09-20 02:15:40 UTC Writing application : mkvmerge v50.0.0 ('Awakenings') 64-bit Writing library : libebml v1.4.0 + libmatroska v1.6.2 Cover : Yes Attachments : cover.png Video ID : 1 Format : AVC Format/Info : Advanced Video Codec Format profile : High@L4 Format settings : CABAC / 4 Ref Frames Format settings, CABAC : Yes Format settings, Reference fra : 4 frames Codec ID : V_MPEG4/ISO/AVC Duration : 23 min 32 s Bit rate mode : Constant Bit rate : 9 186 kb/s Nominal bit rate : 10 000 kb/s Width : 1 920 pixels Height : 1 080 pixels Display aspect ratio : 16:9 Frame rate mode : Constant Frame rate : 23.976 (24000/1001) FPS Color space : YUV Chroma subsampling : 4:2:0 Bit depth : 8 bits Scan type : Progressive Bits/(Pixel*Frame) : 0.185 Stream size : 1.51 GiB (97%) Default : Yes Forced : No Color range : Limited Color primaries : BT.709 Transfer characteristics : BT.709 Matrix coefficients : BT.709 Audio ID : 2 Format : E-AC-3 Format/Info : Enhanced AC-3 Commercial name : Dolby Digital Plus Codec ID : A_EAC3 Duration : 23 min 32 s Bit rate mode : Constant Bit rate : 224 kb/s Channel(s) : 2 channels Channel layout : L R Sampling rate : 48.0 kHz Frame rate : 31.250 FPS (1536 SPF) Compression mode : Lossy Stream size : 37.7 MiB (2%) Title : 日本語 [オリジナル] Language : Japanese Service kind : Complete Main Default : Yes Forced : No
09/22 21:43 特摄连载
HD 1080p from Prime Video. Use CBR bitrate mode. We are planning to upload all Prime Video Japan Dramas and Movies, we need your Support! Support Us Ali (Zhifubao / QR code): https://i.ibb.co/FWV2ggm/1660626347125.png PayPalMe: https://www.paypal.com/paypalme/sakuragikenji ETH (ERC20): 0xea3286E176099E8C9aBaf25A0edf231374C04E89 USDT (BTC / OMNI): 1Lemw6fu5vG3NdvWGxDxsPX7T7yUb3rNzu General Unique ID : 292440770759805816303665067331622474545 (0xDC020B32525FB83927CD0E633F6F1331) Complete name : Kamen.Rider.Gotchard.EP03.1080p.AMZN.WEB-DL.DDP2.0.H.264-MagicStar.mkv Format : Matroska Format version : Version 4 File size : 1.52 GiB Duration : 23 min 32 s Overall bit rate mode : Constant Overall bit rate : 9 233 kb/s Frame rate : 23.976 FPS Encoded date : 2023-09-20 02:10:08 UTC Writing application : mkvmerge v50.0.0 ('Awakenings') 64-bit Writing library : libebml v1.4.0 + libmatroska v1.6.2 Cover : Yes Attachments : cover.png Video ID : 1 Format : AVC Format/Info : Advanced Video Codec Format profile : High@L4 Format settings : CABAC / 4 Ref Frames Format settings, CABAC : Yes Format settings, Reference fra : 4 frames Codec ID : V_MPEG4/ISO/AVC Duration : 23 min 32 s Bit rate mode : Constant Bit rate : 9 005 kb/s Nominal bit rate : 10 000 kb/s Width : 1 920 pixels Height : 1 080 pixels Display aspect ratio : 16:9 Frame rate mode : Constant Frame rate : 23.976 (24000/1001) FPS Color space : YUV Chroma subsampling : 4:2:0 Bit depth : 8 bits Scan type : Progressive Bits/(Pixel*Frame) : 0.181 Stream size : 1.48 GiB (98%) Default : Yes Forced : No Color range : Limited Color primaries : BT.709 Transfer characteristics : BT.709 Matrix coefficients : BT.709 Audio ID : 2 Format : E-AC-3 Format/Info : Enhanced AC-3 Commercial name : Dolby Digital Plus Codec ID : A_EAC3 Duration : 23 min 32 s Bit rate mode : Constant Bit rate : 224 kb/s Channel(s) : 2 channels Channel layout : L R Sampling rate : 48.0 kHz Frame rate : 31.250 FPS (1536 SPF) Compression mode : Lossy Stream size : 37.7 MiB (2%) Title : 日本語 [オリジナル] Language : Japanese Service kind : Complete Main Default : Yes Forced : No
09/22 21:43 特摄连载
TVアニメ「てっぺんっ!!!!!!!!!!!!!!!」キャラクターソング&サウンドトラック Release Date : 2023/09/27 Catalog Number : XNDD-00016~7 Tracklist [Disc 1] 01. てっぺんっ天国 ~TOP OF THE LAUGH!!!~ (TVアニメ「てっぺんっ!!!」OPテーマ) 歌 : てっぺんっオールスターズ[阪本やよい(CV.伊藤彩沙)、高橋よもぎ(CV.愛美)、細野ゆず(CV.佐々木未来)、清鶴かな(CV.相良茉優)、天野ちとせ(CV.相羽あいな)、秋鹿いろは(CV.黒木ほの香)、藪北さえか(CV.北守さいか)、城ケ崎ひかり(CV.若井友希)、白壁まこ(CV.小原莉子)、小松崎みゆ(CV.櫻川めぐ)、牛久みさお(CV.豊田萌絵)、笠間ひな(CV.葉月ひまり)、六香亭ゆいな(CV.小島菜々恵)、石屋もね(CV.鈴木愛奈)、北斗ちほり(CV.小山百代)] 02. あはっててっぺんっ (TVアニメ「てっぺんっ!!!」EDテーマ) 歌 : May'n 03. ハグ・ユア・レッグ (TVアニメ「てっぺんっ!!!」挿入歌) 歌 : ヤングワイワイ[阪本やよい(CV.伊藤彩沙)、高橋よもぎ(CV.愛美)、細野ゆず(CV.佐々木未来)] 04. あくまで手毬唄 (TVアニメ「てっぺんっ!!!」挿入歌) 歌 : 高橋よもぎ(CV.愛美)、バーバア(CV.井上喜久子) 05. TRIP TO BE CONTINUED!!!~南島原いこか~ 歌 : ヤングワイワイ[阪本やよい(CV.伊藤彩沙)、高橋よもぎ(CV.愛美)、細野ゆず(CV.佐々木未来)] 06. 弾丸TOURIST 歌 : 弾丸クノイチ[清鶴かな(CV.相良茉優)、天野ちとせ(CV.相羽あいな)、秋鹿いろは(CV.黒木ほの香)] 07. セレブリ茶・パーティー・タイム 歌 : セレブリ茶[藪北さえか(CV.北守さいか)、城ケ崎ひかり(CV.若井友希)、白壁まこ(CV.小原莉子)] 08. A・KU・DA・RE SOUL 歌 : あくだれ王国[小松崎みゆ(CV.櫻川めぐ)、牛久みさお(CV.豊田萌絵)、笠間ひな(CV.葉月ひまり)] 09. ENCOUNT~北の海での未知との遭遇~ 歌 : シンリャクシャ[六香亭ゆいな(CV.小島菜々恵)、石屋もね(CV.鈴木愛奈)、北斗ちほり(CV.小山百代)] 10. てっぺんグランプリ 11. ヤングワイワイ 12. シンリャクシャ 13. 弾丸クノイチ 14. セレブリ茶 15. あくだれ王国 16. Smile Again 17. Smile Again (Instrumental) [Disc 2] 01. マッチョ 02. なんなん? 03. しゃーないなあ 04. ごきげんさん 05. あんじょうよろしゅう 06. どないやねん 07. せわしないわ 08. わやですわ 09. なんぎなやつやで 10. カーッときよるね 11. かまへんで 12. しんどいねん 13. めばちこできてもた 14. たいがいにしぃや 15. 誰や? 16. ゾッとせえへん? 17. 怖すぎやん 18. 友達やんな? 19. なんかキュンとするわ 20. けったいやなぁ 21. おおらかやねん 22. 青春やねん 23. もうあかん 24. ほないくで 25. めっちゃええやん 26. まいどおおきに 27. そうはならんやろ 28. ほんまにあかん 29. 嗚呼、人生に笑いあり 30. これは事件やでぇ 31. ガールズダイスキ! 32. 一族来たりて笑うたって 33. スペースオカン 34. ピコピコしてんねん 35. でてこい!ヤスいもの! 36. 輪廻でっせ! 作・編曲 : TECHNOBOYS PULCRAFT GREEN-FUND
昨天 07:06 音乐达人
TVアニメ「てっぺんっ!!!!!!!!!!!!!!!」キャラクターソング&サウンドトラック Release Date : 2023/09/27 Catalog Number : XNDD-00016~7 Tracklist [Disc 1] 01. てっぺんっ天国 ~TOP OF THE LAUGH!!!~ (TVアニメ「てっぺんっ!!!」OPテーマ) 歌 : てっぺんっオールスターズ[阪本やよい(CV.伊藤彩沙)、高橋よもぎ(CV.愛美)、細野ゆず(CV.佐々木未来)、清鶴かな(CV.相良茉優)、天野ちとせ(CV.相羽あいな)、秋鹿いろは(CV.黒木ほの香)、藪北さえか(CV.北守さいか)、城ケ崎ひかり(CV.若井友希)、白壁まこ(CV.小原莉子)、小松崎みゆ(CV.櫻川めぐ)、牛久みさお(CV.豊田萌絵)、笠間ひな(CV.葉月ひまり)、六香亭ゆいな(CV.小島菜々恵)、石屋もね(CV.鈴木愛奈)、北斗ちほり(CV.小山百代)] 02. あはっててっぺんっ (TVアニメ「てっぺんっ!!!」EDテーマ) 歌 : May'n 03. ハグ・ユア・レッグ (TVアニメ「てっぺんっ!!!」挿入歌) 歌 : ヤングワイワイ[阪本やよい(CV.伊藤彩沙)、高橋よもぎ(CV.愛美)、細野ゆず(CV.佐々木未来)] 04. あくまで手毬唄 (TVアニメ「てっぺんっ!!!」挿入歌) 歌 : 高橋よもぎ(CV.愛美)、バーバア(CV.井上喜久子) 05. TRIP TO BE CONTINUED!!!~南島原いこか~ 歌 : ヤングワイワイ[阪本やよい(CV.伊藤彩沙)、高橋よもぎ(CV.愛美)、細野ゆず(CV.佐々木未来)] 06. 弾丸TOURIST 歌 : 弾丸クノイチ[清鶴かな(CV.相良茉優)、天野ちとせ(CV.相羽あいな)、秋鹿いろは(CV.黒木ほの香)] 07. セレブリ茶・パーティー・タイム 歌 : セレブリ茶[藪北さえか(CV.北守さいか)、城ケ崎ひかり(CV.若井友希)、白壁まこ(CV.小原莉子)] 08. A・KU・DA・RE SOUL 歌 : あくだれ王国[小松崎みゆ(CV.櫻川めぐ)、牛久みさお(CV.豊田萌絵)、笠間ひな(CV.葉月ひまり)] 09. ENCOUNT~北の海での未知との遭遇~ 歌 : シンリャクシャ[六香亭ゆいな(CV.小島菜々恵)、石屋もね(CV.鈴木愛奈)、北斗ちほり(CV.小山百代)] 10. てっぺんグランプリ 11. ヤングワイワイ 12. シンリャクシャ 13. 弾丸クノイチ 14. セレブリ茶 15. あくだれ王国 16. Smile Again 17. Smile Again (Instrumental) [Disc 2] 01. マッチョ 02. なんなん? 03. しゃーないなあ 04. ごきげんさん 05. あんじょうよろしゅう 06. どないやねん 07. せわしないわ 08. わやですわ 09. なんぎなやつやで 10. カーッときよるね 11. かまへんで 12. しんどいねん 13. めばちこできてもた 14. たいがいにしぃや 15. 誰や? 16. ゾッとせえへん? 17. 怖すぎやん 18. 友達やんな? 19. なんかキュンとするわ 20. けったいやなぁ 21. おおらかやねん 22. 青春やねん 23. もうあかん 24. ほないくで 25. めっちゃええやん 26. まいどおおきに 27. そうはならんやろ 28. ほんまにあかん 29. 嗚呼、人生に笑いあり 30. これは事件やでぇ 31. ガールズダイスキ! 32. 一族来たりて笑うたって 33. スペースオカン 34. ピコピコしてんねん 35. でてこい!ヤスいもの! 36. 輪廻でっせ! 作・編曲 : TECHNOBOYS PULCRAFT GREEN-FUND
昨天 07:06 音乐达人
HD 1080p from HULU JAPAN. General Unique ID : 117144455305780632478325030404166961507 (0x58213390DDC2657DF1A3D13D114AC963) Complete name : Joshikousei.Sou.ni.Naru.EP02.1080p.HULU.WEB-DL.AAC2.0.H.264-MagicStar.mkv Format : Matroska Format version : Version 4 File size : 1.05 GiB Duration : 24 min 0 s Overall bit rate : 6 236 kb/s Frame rate : 29.970 FPS Encoded date : 2023-09-25 14:46:08 UTC Writing application : mkvmerge v50.0.0 ('Awakenings') 64-bit Writing library : libebml v1.4.0 + libmatroska v1.6.2 Cover : Yes Attachments : cover.png Video ID : 1 Format : AVC Format/Info : Advanced Video Codec Format profile : High@L4 Format settings : CABAC / 4 Ref Frames Format settings, CABAC : Yes Format settings, Reference fra : 4 frames Codec ID : V_MPEG4/ISO/AVC Duration : 23 min 59 s Bit rate : 5 979 kb/s Width : 1 920 pixels Height : 1 080 pixels Display aspect ratio : 16:9 Frame rate mode : Constant Frame rate : 29.970 (29970/1000) FPS Original frame rate : 29.970 (30000/1001) FPS Color space : YUV Chroma subsampling : 4:2:0 Bit depth : 8 bits Scan type : Progressive Bits/(Pixel*Frame) : 0.096 Stream size : 1.00 GiB (96%) Default : Yes Forced : No Color range : Limited Color primaries : BT.709 Transfer characteristics : BT.709 Matrix coefficients : BT.709 Audio ID : 2 Format : AAC LC Format/Info : Advanced Audio Codec Low Complexity Codec ID : A_AAC-2 Duration : 24 min 0 s Bit rate : 253 kb/s Channel(s) : 2 channels Channel layout : L R Sampling rate : 48.0 kHz Frame rate : 46.875 FPS (1024 SPF) Compression mode : Lossy Stream size : 43.5 MiB (4%) Title : 日本語 [オリジナル] Language : Japanese Default : Yes Forced : No
昨天 07:06 日剧更新了
HD 1080p from Abema TV. Japanese subtitles added. General Unique ID : 254538977299165189927458925641139822226 (0xBF7E6C80BD70AAECA16A4A3EE6B11E92) Complete name : Around.1.4.EP10.1080p.ABEMA-TV.WEB-DL.AAC2.0.H.264-MagicStar.mkv Format : Matroska Format version : Version 4 File size : 701 MiB Duration : 23 min 22 s Overall bit rate mode : Variable Overall bit rate : 4 196 kb/s Frame rate : 29.970 FPS Encoded date : 2023-09-25 14:27:29 UTC Writing application : mkvmerge v50.0.0 ('Awakenings') 64-bit Writing library : libebml v1.4.0 + libmatroska v1.6.2 Video ID : 1 Format : AVC Format/Info : Advanced Video Codec Format profile : Main@L3.1 Format settings : CABAC / 4 Ref Frames Format settings, CABAC : Yes Format settings, Reference fra : 4 frames Codec ID : V_MPEG4/ISO/AVC Duration : 23 min 22 s Bit rate mode : Variable Bit rate : 4 001 kb/s Maximum bit rate : 40.0 Mb/s Width : 1 920 pixels Height : 1 080 pixels Display aspect ratio : 16:9 Frame rate mode : Constant Frame rate : 29.970 (29970/1000) FPS Original frame rate : 29.970 (30000/1001) FPS Color space : YUV Chroma subsampling : 4:2:0 Bit depth : 8 bits Scan type : Progressive Bits/(Pixel*Frame) : 0.064 Stream size : 669 MiB (95%) Default : Yes Forced : No Audio ID : 2 Format : AAC LC Format/Info : Advanced Audio Codec Low Complexity Codec ID : A_AAC-2 Duration : 23 min 22 s Bit rate : 192 kb/s Channel(s) : 2 channels Channel layout : L R Sampling rate : 44.1 kHz Frame rate : 43.066 FPS (1024 SPF) Compression mode : Lossy Stream size : 32.2 MiB (5%) Title : 日本語 [オリジナル] Language : Japanese Default : Yes Forced : No
昨天 07:06 日剧更新了
HD 1080p from WOWOW Prime. WOWOW Original Series. Japanese subtitles added. General Unique ID : 187913802008357216485283304421767576415 (0x8D5EE1BF4B1948D192DF41AE1B34FB5F) Complete name : Rakujitsu.EP03.1080p.WOWOW.HDTV.H264.AAC-MagicStar.mkv Format : Matroska Format version : Version 2 File size : 751 MiB Duration : 48 min 30 s Overall bit rate : 2 164 kb/s Frame rate : 29.970 FPS Encoded date : 2023-09-25 17:43:21 UTC Writing application : mkvmerge v8.5.2 ('Crosses') 32bit Writing library : libebml v1.3.3 + libmatroska v1.4.4 Video ID : 1 Format : AVC Format/Info : Advanced Video Codec Format profile : High@L4.1 Format settings : CABAC / 4 Ref Frames Format settings, CABAC : Yes Format settings, Reference fra : 4 frames Codec ID : V_MPEG4/ISO/AVC Duration : 48 min 30 s Bit rate : 1 973 kb/s Width : 1 920 pixels Height : 1 080 pixels Display aspect ratio : 16:9 Frame rate mode : Constant Frame rate : 29.970 (30000/1001) FPS Color space : YUV Chroma subsampling : 4:2:0 Bit depth : 8 bits Scan type : Progressive Bits/(Pixel*Frame) : 0.032 Stream size : 684 MiB (91%) Writing library : x264 core 148 r2638 7599210 Encoding settings : cabac=1 / ref=3 / deblock=1:0:0 / analyse=0x3:0x113 / me=umh / subme=8 / psy=1 / psy_rd=1.00:0.00 / mixed_ref=0 / me_range=16 / chroma_me=1 / trellis=2 / 8x8dct=1 / cqm=0 / deadzone=21,11 / fast_pskip=1 / chroma_qp_offset=-2 / threads=24 / lookahead_threads=4 / sliced_threads=0 / nr=0 / decimate=1 / interlaced=0 / bluray_compat=0 / constrained_intra=0 / bframes=3 / b_pyramid=2 / b_adapt=2 / b_bias=0 / direct=3 / weightb=1 / open_gop=0 / weightp=2 / keyint=300 / keyint_min=29 / scenecut=40 / intra_refresh=0 / rc_lookahead=40 / rc=crf / mbtree=1 / crf=21.0 / qcomp=0.60 / qpmin=0 / qpmax=69 / qpstep=4 / ip_ratio=1.40 / aq=1:1.00 Default : Yes Forced : No Audio ID : 2 Format : AAC LC Format/Info : Advanced Audio Codec Low Complexity Codec ID : A_AAC-2 Duration : 48 min 29 s Bit rate : 192 kb/s Channel(s) : 2 channels Channel layout : L R Sampling rate : 48.0 kHz Frame rate : 46.875 FPS (1024 SPF) Compression mode : Lossy Stream size : 65.4 MiB (9%) Language : Japanese Default : Yes Forced : No
昨天 07:06 日剧更新了
HD 1080p from Abema TV. Japanese subtitles added. Audio description added. General Unique ID : 222766279308230850581599835942868165108 (0xA797398BF7053FC5792CB532455F21F4) Complete name : Nanyoubi.ni.Umaretano.EP07.1080p.ABEMA-TV.WEB-DL.AAC2.0.H.264-MagicStar.mkv Format : Matroska Format version : Version 4 File size : 1.41 GiB Duration : 45 min 58 s Overall bit rate mode : Variable Overall bit rate : 4 391 kb/s Frame rate : 29.970 FPS Encoded date : 2023-09-25 14:28:29 UTC Writing application : mkvmerge v50.0.0 ('Awakenings') 64-bit Writing library : libebml v1.4.0 + libmatroska v1.6.2 Video ID : 1 Format : AVC Format/Info : Advanced Video Codec Format profile : Main@L3.1 Format settings : CABAC / 4 Ref Frames Format settings, CABAC : Yes Format settings, Reference fra : 4 frames Codec ID : V_MPEG4/ISO/AVC Duration : 45 min 58 s Bit rate mode : Variable Bit rate : 4 005 kb/s Maximum bit rate : 40.0 Mb/s Width : 1 920 pixels Height : 1 080 pixels Display aspect ratio : 16:9 Frame rate mode : Constant Frame rate : 29.970 (29970/1000) FPS Original frame rate : 29.970 (30000/1001) FPS Color space : YUV Chroma subsampling : 4:2:0 Bit depth : 8 bits Scan type : Progressive Bits/(Pixel*Frame) : 0.064 Stream size : 1.29 GiB (91%) Default : Yes Forced : No Audio #1 ID : 2 Format : AAC LC Format/Info : Advanced Audio Codec Low Complexity Codec ID : A_AAC-2 Duration : 45 min 58 s Bit rate : 192 kb/s Channel(s) : 2 channels Channel layout : L R Sampling rate : 44.1 kHz Frame rate : 43.066 FPS (1024 SPF) Compression mode : Lossy Stream size : 63.0 MiB (4%) Title : 日本語 [オリジナル] Language : Japanese Default : Yes Forced : No Audio #2 ID : 3 Format : AAC LC Format/Info : Advanced Audio Codec Low Complexity Codec ID : A_AAC-2 Duration : 45 min 58 s Bit rate : 192 kb/s Channel(s) : 2 channels Channel layout : L R Sampling rate : 44.1 kHz Frame rate : 43.066 FPS (1024 SPF) Compression mode : Lossy Stream size : 63.1 MiB (4%) Title : 日本語 [解説放送音声] Language : Japanese Default : No Forced : No
昨天 07:06 日剧更新了
HD 1080p from HULU JAPAN. General Unique ID : 62899135431452531678452754464516796020 (0x2F51EECEA00CC07764E63DA418B6EE74) Complete name : Super.no.Kago.no.Nakami.ga.Ki.ni.Naru.Watashi.EP09.1080p.HULU.WEB-DL.AAC2.0.H.264-MagicStar.mkv Format : Matroska Format version : Version 4 File size : 1.06 GiB Duration : 24 min 26 s Overall bit rate : 6 232 kb/s Frame rate : 29.970 FPS Encoded date : 2023-09-25 14:57:15 UTC Writing application : mkvmerge v50.0.0 ('Awakenings') 64-bit Writing library : libebml v1.4.0 + libmatroska v1.6.2 Cover : Yes Attachments : cover.png Video ID : 1 Format : AVC Format/Info : Advanced Video Codec Format profile : High@L4 Format settings : CABAC / 4 Ref Frames Format settings, CABAC : Yes Format settings, Reference fra : 4 frames Codec ID : V_MPEG4/ISO/AVC Duration : 24 min 26 s Bit rate : 5 975 kb/s Width : 1 920 pixels Height : 1 080 pixels Display aspect ratio : 16:9 Frame rate mode : Constant Frame rate : 29.970 (29970/1000) FPS Original frame rate : 29.970 (30000/1001) FPS Color space : YUV Chroma subsampling : 4:2:0 Bit depth : 8 bits Scan type : Progressive Bits/(Pixel*Frame) : 0.096 Stream size : 1.02 GiB (96%) Default : Yes Forced : No Color range : Limited Color primaries : BT.709 Transfer characteristics : BT.709 Matrix coefficients : BT.709 Audio ID : 2 Format : AAC LC Format/Info : Advanced Audio Codec Low Complexity Codec ID : A_AAC-2 Duration : 24 min 26 s Bit rate : 253 kb/s Channel(s) : 2 channels Channel layout : L R Sampling rate : 48.0 kHz Frame rate : 46.875 FPS (1024 SPF) Compression mode : Lossy Stream size : 44.3 MiB (4%) Title : 日本語 [オリジナル] Language : Japanese Default : Yes Forced : No
昨天 07:06 日剧更新了
HD 1080p from TVer. Japanese subtitles added. General Unique ID : 326284594241638197108505955621893672228 (0xF5782085F8565EC9CACE599230658D24) Complete name : [MagicStar] Yuyu Wonderland EP11 [WEBDL] [1080p].mkv Format : Matroska Format version : Version 4 File size : 477 MiB Duration : 23 min 4 s Overall bit rate : 2 888 kb/s Frame rate : 29.970 FPS Encoded date : 2023-09-25 14:43:05 UTC Writing application : mkvmerge v50.0.0 ('Awakenings') 64-bit Writing library : libebml v1.4.0 + libmatroska v1.6.2 Cover : Yes Attachments : cover.jpg Video ID : 1 Format : AVC Format/Info : Advanced Video Codec Format profile : High@L4 Format settings : CABAC / 4 Ref Frames Format settings, CABAC : Yes Format settings, Reference fra : 4 frames Codec ID : V_MPEG4/ISO/AVC Duration : 23 min 3 s Bit rate : 2 688 kb/s Width : 1 920 pixels Height : 1 080 pixels Display aspect ratio : 16:9 Frame rate mode : Constant Frame rate : 29.970 (29970/1000) FPS Original frame rate : 29.970 (30000/1001) FPS Color space : YUV Chroma subsampling : 4:2:0 Bit depth : 8 bits Scan type : Progressive Bits/(Pixel*Frame) : 0.043 Stream size : 443 MiB (93%) Default : Yes Forced : No Color range : Limited Color primaries : BT.709 Transfer characteristics : BT.709 Matrix coefficients : BT.709 Audio ID : 2 Format : AAC LC Format/Info : Advanced Audio Codec Low Complexity Codec ID : A_AAC-2 Duration : 23 min 4 s Bit rate : 192 kb/s Channel(s) : 2 channels Channel layout : L R Sampling rate : 48.0 kHz Frame rate : 46.875 FPS (1024 SPF) Compression mode : Lossy Stream size : 31.6 MiB (7%) Title : 日本語 [オリジナル] Language : Japanese Default : Yes Forced : No
昨天 07:06 日剧更新了
HD 1080p from HULU JAPAN. General Unique ID : 6822325344790930111623191913384224977 (0x521EE9BF48C3511E729547C7BC5A8D1) Complete name : Beni.Sasu.Life.EP10.1080p.HULU.WEB-DL.AAC2.0.H.264-MagicStar.mkv Format : Matroska Format version : Version 4 File size : 781 MiB Duration : 23 min 3 s Overall bit rate : 4 734 kb/s Frame rate : 29.970 FPS Encoded date : 2023-09-25 17:06:45 UTC Writing application : mkvmerge v50.0.0 ('Awakenings') 64-bit Writing library : libebml v1.4.0 + libmatroska v1.6.2 Cover : Yes Attachments : cover.png Video ID : 1 Format : AVC Format/Info : Advanced Video Codec Format profile : High@L4 Format settings : CABAC / 4 Ref Frames Format settings, CABAC : Yes Format settings, Reference fra : 4 frames Codec ID : V_MPEG4/ISO/AVC Duration : 23 min 2 s Bit rate : 4 478 kb/s Width : 1 920 pixels Height : 1 080 pixels Display aspect ratio : 16:9 Frame rate mode : Constant Frame rate : 29.970 (29970/1000) FPS Original frame rate : 29.970 (30000/1001) FPS Color space : YUV Chroma subsampling : 4:2:0 Bit depth : 8 bits Scan type : Progressive Bits/(Pixel*Frame) : 0.072 Stream size : 738 MiB (95%) Default : Yes Forced : No Color range : Limited Color primaries : BT.709 Transfer characteristics : BT.709 Matrix coefficients : BT.709 Audio ID : 2 Format : AAC LC Format/Info : Advanced Audio Codec Low Complexity Codec ID : A_AAC-2 Duration : 23 min 3 s Bit rate : 253 kb/s Channel(s) : 2 channels Channel layout : L R Sampling rate : 48.0 kHz Frame rate : 46.875 FPS (1024 SPF) Compression mode : Lossy Stream size : 41.8 MiB (5%) Title : 日本語 [オリジナル] Language : Japanese Default : Yes Forced : No
昨天 07:06 日剧更新了
HD 1080p from U-NEXT. We are planning to upload all U-NEXT Dramas and Movies, we need your Support! Support Us Ali (Zhifubao / QR code): https://i.ibb.co/FWV2ggm/1660626347125.png PayPalMe: https://www.paypal.com/paypalme/sakuragikenji ETH (ERC20): 0xea3286E176099E8C9aBaf25A0edf231374C04E89 USDT (BTC / OMNI): 1Lemw6fu5vG3NdvWGxDxsPX7T7yUb3rNzu General Unique ID : 246811343799082347995134732793809368624 (0xB9AE22C16918D8620C823B5AE1267630) Complete name : Yawao.to.Katako.EP08.1080p.U-NEXT.WEB-DL.AAC2.0.H.264-MagicStar.mkv Format : Matroska Format version : Version 4 File size : 1.11 GiB Duration : 37 min 57 s Overall bit rate : 4 196 kb/s Frame rate : 29.970 FPS Encoded date : 2023-09-25 15:32:01 UTC Writing application : mkvmerge v50.0.0 ('Awakenings') 64-bit Writing library : libebml v1.4.0 + libmatroska v1.6.2 Cover : Yes Attachments : cover.png Video ID : 1 Format : AVC Format/Info : Advanced Video Codec Format profile : Main@L4 Format settings : CABAC / 3 Ref Frames Format settings, CABAC : Yes Format settings, Reference fra : 3 frames Codec ID : V_MPEG4/ISO/AVC Duration : 37 min 56 s Bit rate : 4 052 kb/s Width : 1 920 pixels Height : 1 080 pixels Display aspect ratio : 16:9 Frame rate mode : Constant Frame rate : 29.970 (29970/1000) FPS Color space : YUV Chroma subsampling : 4:2:0 Bit depth : 8 bits Scan type : Progressive Bits/(Pixel*Frame) : 0.065 Stream size : 1.07 GiB (96%) Writing library : x264 core 164 Encoding settings : cabac=1 / ref=3 / deblock=1:-1:-1 / analyse=0x1:0x111 / me=hex / subme=4 / psy=1 / psy_rd=1.00:0.15 / mixed_ref=0 / me_range=16 / chroma_me=1 / trellis=1 / 8x8dct=0 / cqm=0 / deadzone=21,11 / fast_pskip=1 / chroma_qp_offset=-1 / threads=12 / lookahead_threads=3 / sliced_threads=0 / nr=0 / decimate=1 / interlaced=0 / bluray_compat=0 / constrained_intra=0 / bframes=2 / b_pyramid=0 / b_adapt=2 / b_bias=0 / direct=3 / weightb=1 / open_gop=0 / weightp=1 / keyint=60 / keyint_min=31 / scenecut=0 / intra_refresh=0 / rc_lookahead=20 / rc=2pass / mbtree=1 / bitrate=4052 / ratetol=1.0 / qcomp=0.60 / qpmin=0 / qpmax=69 / qpstep=4 / cplxblur=20.0 / qblur=0.5 / vbv_maxrate=8050 / vbv_bufsize=8050 / nal_hrd=none / filler=0 / ip_ratio=1.40 / aq=1:1.00 Language : English Default : Yes Forced : No Audio ID : 2 Format : AAC LC Format/Info : Advanced Audio Codec Low Complexity Codec ID : A_AAC-2 Duration : 37 min 57 s Bit rate : 128 kb/s Channel(s) : 2 channels Channel layout : L R Sampling rate : 48.0 kHz Frame rate : 46.875 FPS (1024 SPF) Compression mode : Lossy Stream size : 34.7 MiB (3%) Title : 日本語 [オリジナル] Language : Japanese Default : Yes Forced : No
昨天 07:06 日剧更新了
HD 1080p from Netflix. Japanese subtitles added. General Unique ID : 106473012698477394043231309995715635452 (0x5019F4D2DCE4D32E17379FD77CACA8FC) Complete name : Tenshoku.no.Maou.sama.EP11.1080p.NF.WEB-DL.DDP2.0.H.264-MagicStar.mkv Format : Matroska Format version : Version 4 File size : 2.10 GiB Duration : 45 min 24 s Overall bit rate mode : Variable Overall bit rate : 6 617 kb/s Frame rate : 23.976 FPS Encoded date : 2023-09-25 15:09:25 UTC Writing application : mkvmerge v50.0.0 ('Awakenings') 64-bit Writing library : libebml v1.4.0 + libmatroska v1.6.2 Video ID : 1 Format : AVC Format/Info : Advanced Video Codec Format profile : High@L4 Format settings : CABAC / 4 Ref Frames Format settings, CABAC : Yes Format settings, Reference fra : 4 frames Codec ID : V_MPEG4/ISO/AVC Duration : 45 min 24 s Bit rate mode : Variable Bit rate : 6 500 kb/s Maximum bit rate : 20.0 Mb/s Width : 1 920 pixels Height : 1 080 pixels Display aspect ratio : 16:9 Frame rate mode : Constant Frame rate : 23.976 (24000/1001) FPS Color space : YUV Chroma subsampling : 4:2:0 Bit depth : 8 bits Scan type : Progressive Bits/(Pixel*Frame) : 0.131 Stream size : 2.06 GiB (98%) Writing library : x264 core 148 r2727 7d026e8 Encoding settings : cabac=1 / ref=4 / deblock=1:0:0 / analyse=0x3:0x111 / me=umh / subme=10 / psy=1 / psy_rd=1.00:0.00 / mixed_ref=1 / me_range=120 / chroma_me=1 / trellis=2 / 8x8dct=1 / cqm=0 / deadzone=21,11 / fast_pskip=1 / chroma_qp_offset=-2 / threads=6 / lookahead_threads=1 / sliced_threads=0 / nr=0 / decimate=1 / interlaced=0 / bluray_compat=0 / stitchable=1 / constrained_intra=0 / bframes=16 / b_pyramid=2 / b_adapt=2 / b_bias=0 / direct=3 / weightb=1 / open_gop=0 / weightp=2 / keyint=240 / keyint_min=121 / scenecut=0 / intra_refresh=0 / rc_lookahead=240 / rc=2pass / mbtree=1 / bitrate=6500 / ratetol=1.0 / qcomp=0.50 / qpmin=6 / qpmax=51 / qpstep=4 / cplxblur=10.0 / qblur=0.5 / vbv_maxrate=20000 / vbv_bufsize=25000 / nal_hrd=vbr / filler=0 / ip_ratio=1.40 / aq=1:0.80 Default : Yes Forced : No Audio ID : 2 Format : E-AC-3 Format/Info : Enhanced AC-3 Commercial name : Dolby Digital Plus Codec ID : A_EAC3 Duration : 45 min 24 s Bit rate mode : Constant Bit rate : 128 kb/s Channel(s) : 2 channels Channel layout : L R Sampling rate : 48.0 kHz Frame rate : 31.250 FPS (1536 SPF) Compression mode : Lossy Stream size : 41.6 MiB (2%) Title : 日本語 [オリジナル] Language : Japanese Service kind : Complete Main Default : Yes Forced : No
昨天 07:06 日剧更新了
HD 1080p from FOD. Japanese subtitles added. General Unique ID : 228706081960037004973542769617095971374 (0xAC0F306D83425CAF701FF3B28475522E) Complete name : Gifted.S01EP07.1080p.FOD.WEB-DL.AAC2.0.H.264-MagicStar.mkv Format : Matroska Format version : Version 4 File size : 1 014 MiB Duration : 44 min 5 s Overall bit rate mode : Variable Overall bit rate : 3 215 kb/s Frame rate : 29.970 FPS Encoded date : 2023-09-25 14:26:53 UTC Writing application : mkvmerge v50.0.0 ('Awakenings') 64-bit Writing library : libebml v1.4.0 + libmatroska v1.6.2 Video ID : 1 Format : AVC Format/Info : Advanced Video Codec Format profile : High@L4.1 Format settings : CABAC / 2 Ref Frames Format settings, CABAC : Yes Format settings, Reference fra : 2 frames Codec ID : V_MPEG4/ISO/AVC Duration : 44 min 5 s Bit rate mode : Variable Bit rate : 3 020 kb/s Maximum bit rate : 15.0 Mb/s Width : 1 920 pixels Height : 1 080 pixels Display aspect ratio : 16:9 Frame rate mode : Constant Frame rate : 29.970 (29970/1000) FPS Original frame rate : 29.970 (30000/1001) FPS Color space : YUV Chroma subsampling : 4:2:0 Bit depth : 8 bits Scan type : Progressive Bits/(Pixel*Frame) : 0.049 Stream size : 952 MiB (94%) Default : Yes Forced : No Color range : Limited Color primaries : BT.709 Transfer characteristics : BT.709 Matrix coefficients : BT.709 Audio ID : 2 Format : AAC LC Format/Info : Advanced Audio Codec Low Complexity Codec ID : A_AAC-2 Duration : 44 min 5 s Bit rate : 192 kb/s Channel(s) : 2 channels Channel layout : L R Sampling rate : 48.0 kHz Frame rate : 46.875 FPS (1024 SPF) Compression mode : Lossy Stream size : 60.5 MiB (6%) Title : 日本語 [オリジナル] Language : Japanese Default : Yes Forced : No
昨天 07:06 日剧更新了
HD 1080p from Abema TV. Japanese subtitles added. General Unique ID : 338197051700912568192898995274791397178 (0xFE6E620590D4D4094B43A1C8A6B2273A) Complete name : Halation.Love.EP08.1080p.ABEMA-TV.WEB-DL.AAC2.0.H.264-MagicStar.mkv Format : Matroska Format version : Version 4 File size : 708 MiB Duration : 23 min 34 s Overall bit rate mode : Variable Overall bit rate : 4 201 kb/s Frame rate : 29.970 FPS Encoded date : 2023-09-25 14:26:14 UTC Writing application : mkvmerge v50.0.0 ('Awakenings') 64-bit Writing library : libebml v1.4.0 + libmatroska v1.6.2 Video ID : 1 Format : AVC Format/Info : Advanced Video Codec Format profile : Main@L3.1 Format settings : CABAC / 4 Ref Frames Format settings, CABAC : Yes Format settings, Reference fra : 4 frames Codec ID : V_MPEG4/ISO/AVC Duration : 23 min 34 s Bit rate mode : Variable Bit rate : 4 005 kb/s Maximum bit rate : 40.0 Mb/s Width : 1 920 pixels Height : 1 080 pixels Display aspect ratio : 16:9 Frame rate mode : Constant Frame rate : 29.970 (29970/1000) FPS Original frame rate : 29.970 (30000/1001) FPS Color space : YUV Chroma subsampling : 4:2:0 Bit depth : 8 bits Scan type : Progressive Bits/(Pixel*Frame) : 0.064 Stream size : 675 MiB (95%) Default : Yes Forced : No Audio ID : 2 Format : AAC LC Format/Info : Advanced Audio Codec Low Complexity Codec ID : A_AAC-2 Duration : 23 min 34 s Bit rate : 192 kb/s Channel(s) : 2 channels Channel layout : L R Sampling rate : 44.1 kHz Frame rate : 43.066 FPS (1024 SPF) Compression mode : Lossy Stream size : 32.5 MiB (5%) Title : 日本語 [オリジナル] Language : Japanese Default : Yes Forced : No
昨天 07:06 日剧更新了
[美国][剧情/奇幻/冒险][权力的游戏第八季 Game.of.Thrones.S08(全06集)][WEBRip-MKV/2G][中英字幕] ◎译  名 权力的游戏 第八季/Game of Thrones: The Final Season/权游8 ◎片  名 Game of Thrones Season 8 ◎年  代 2019 ◎产  地  美国 ◎类  别 剧情/奇幻/冒险 ◎语  言  英语 ◎官方主页  http://www.hbo.com/game-of-thrones ◎上映日期 2019-04-14(美国) ◎整理链接 http://bbs.homefei.me/read-htm-tid-184747.html ◎IMDb评分 9.5/10 from 1,437,376 users ◎IMDb链接 http://www.imdb.com/title/tt0944947 ◎豆瓣评分 9.8/10 from 8,792 users ◎豆瓣链接  https://movie.douban.com/subject/26584183/ ◎集  数 6 ◎片  长 60分钟(E1-E2) / 80分钟(E3-E6) ◎导  演 米格尔·萨普什尼克 Miguel Sapochnik / 大卫·努特尔 David Nutter / 戴维·贝尼奥夫 David Benioff / D·B·威斯 D.B. Weiss ◎编  剧 戴维·贝尼奥夫 David Benioff / D·B·威斯 D.B. Weiss / 乔治·马丁 George R.R. Martin ◎主  演 艾米莉亚·克拉克 Emilia Clarke 基特·哈灵顿 Kit Harington 彼特·丁拉基 Peter Dinklage 苏菲·特纳 Sophie Turner 麦茜·威廉姆斯 Maisie Williams 琳娜·海蒂 Lena Headey 伊萨克·亨普斯特德-怀特 Isaac Hempstead-Wright 尼古拉·科斯特-瓦尔道 Nikolaj Coster-Waldau 约翰·C·布莱德利 John C. Bradley 阿尔菲·艾伦 Alfie Allen 皮鲁·埃斯贝克 Pilou Asbæk 格温多兰·克里斯蒂 Gwendoline Christie 利亚姆·坎宁安 Liam Cunningham ◎简  介 HBO剧集《权力的游戏》第八季将于2019年4月14日播出,本季共6集。 故事发展至第八季,重返临冬城的琼恩·雪诺(基特·哈灵顿 Kit Harington 饰)在布兰·史塔克(伊萨克·亨普斯特德-怀特 Isaac Hempstead-Wright 饰)口中得知了自己身世的 秘密 ,让他与丹妮莉丝·塔格利安(艾米莉亚·克拉克 Emilia Clarke 饰)的关系蒙上了一层冰霜。 詹姆·兰尼斯特(尼古拉·科斯特-瓦尔道 Nikolaj Coster-Waldau 饰)试图召集河间地驻军北伐异鬼,却发现艾德慕·徒利(托比亚斯·门基斯 Tobias Menzies 饰)已经包围你了奔流城。 攸伦·葛雷乔伊(皮鲁·埃斯贝克 Pilou Asbæ 饰)将黄金团带至君临获取了瑟曦(琳娜·海蒂 Lena Headey 饰)的信任,而实际上,他已经与无面者贾昆·赫加尔(汤姆·拉斯齐哈 Tom Wlaschiha 饰)私下达成了秘密协议。 ◎获奖情况 第5届豆瓣 电影 年度榜单 ( 2018 ) 最值得期待的剧集(提名) 第一集磁力链接: magnet:?xt=urn:btih:cb4b612b6259ff87fc9322b6c71867ba107cc841&xl=2130707465 第二集磁力链接: magnet:?xt=urn:btih:08f53f5768c41bd73d266286fedfacbbe05817a9&xl=2285896713 第三集磁力链接: magnet:?xt=urn:btih:4E27CC34832CE75CDF652C0BA51FFB6B45C66CB2 第四集磁力链接: magnet:?xt=urn:btih:B54F70152F7BE160E9FDBC9105A1EBF25BB93921 第五集磁力链接: magnet:?xt=urn:btih:11732BCFE7553549FBD24C30280FFA427F9F03F9 第六集磁力链接: magnet:?xt=urn:btih:C713C1C992DEB0F5A048BED219C00DC676F353BA
05/20 21:03 飘域家园 (讨论)
[美国][剧情/奇幻/冒险][权力的游戏第八季 Game.of.Thrones.S08(更新05集)][WEBRip-MKV/2G][中英字幕] ◎译  名 权力的游戏 第八季/Game of Thrones: The Final Season/权游8 ◎片  名 Game of Thrones Season 8 ◎年  代 2019 ◎产  地  美国 ◎类  别 剧情/奇幻/冒险 ◎语  言  英语 ◎官方主页  http://www.hbo.com/game-of-thrones ◎上映日期 2019-04-14(美国) ◎整理链接 http://bbs.homefei.me/read-htm-tid-184747.html ◎IMDb评分 9.5/10 from 1,437,376 users ◎IMDb链接 http://www.imdb.com/title/tt0944947 ◎豆瓣评分 9.8/10 from 8,792 users ◎豆瓣链接  https://movie.douban.com/subject/26584183/ ◎集  数 6 ◎片  长 60分钟(E1-E2) / 80分钟(E3-E6) ◎导  演 米格尔·萨普什尼克 Miguel Sapochnik / 大卫·努特尔 David Nutter / 戴维·贝尼奥夫 David Benioff / D·B·威斯 D.B. Weiss ◎编  剧 戴维·贝尼奥夫 David Benioff / D·B·威斯 D.B. Weiss / 乔治·马丁 George R.R. Martin ◎主  演 艾米莉亚·克拉克 Emilia Clarke 基特·哈灵顿 Kit Harington 彼特·丁拉基 Peter Dinklage 苏菲·特纳 Sophie Turner 麦茜·威廉姆斯 Maisie Williams 琳娜·海蒂 Lena Headey 伊萨克·亨普斯特德-怀特 Isaac Hempstead-Wright 尼古拉·科斯特-瓦尔道 Nikolaj Coster-Waldau 约翰·C·布莱德利 John C. Bradley 阿尔菲·艾伦 Alfie Allen 皮鲁·埃斯贝克 Pilou Asbæk 格温多兰·克里斯蒂 Gwendoline Christie 利亚姆·坎宁安 Liam Cunningham ◎简  介 HBO剧集《权力的游戏》第八季将于2019年4月14日播出,本季共6集。 故事发展至第八季,重返临冬城的琼恩·雪诺(基特·哈灵顿 Kit Harington 饰)在布兰·史塔克(伊萨克·亨普斯特德-怀特 Isaac Hempstead-Wright 饰)口中得知了自己身世的 秘密 ,让他与丹妮莉丝·塔格利安(艾米莉亚·克拉克 Emilia Clarke 饰)的关系蒙上了一层冰霜。 詹姆·兰尼斯特(尼古拉·科斯特-瓦尔道 Nikolaj Coster-Waldau 饰)试图召集河间地驻军北伐异鬼,却发现艾德慕·徒利(托比亚斯·门基斯 Tobias Menzies 饰)已经包围你了奔流城。 攸伦·葛雷乔伊(皮鲁·埃斯贝克 Pilou Asbæ 饰)将黄金团带至君临获取了瑟曦(琳娜·海蒂 Lena Headey 饰)的信任,而实际上,他已经与无面者贾昆·赫加尔(汤姆·拉斯齐哈 Tom Wlaschiha 饰)私下达成了秘密协议。 ◎获奖情况 第5届豆瓣 电影 年度榜单 ( 2018 ) 最值得期待的剧集(提名) 第一集磁力链接: magnet:?xt=urn:btih:cb4b612b6259ff87fc9322b6c71867ba107cc841&xl=2130707465 第二集磁力链接: magnet:?xt=urn:btih:08f53f5768c41bd73d266286fedfacbbe05817a9&xl=2285896713 第三集磁力链接: magnet:?xt=urn:btih:4E27CC34832CE75CDF652C0BA51FFB6B45C66CB2 第四集磁力链接: magnet:?xt=urn:btih:B54F70152F7BE160E9FDBC9105A1EBF25BB93921 第五集磁力链接: magnet:?xt=urn:btih:11732BCFE7553549FBD24C30280FFA427F9F03F9
05/13 19:54 飘域家园 (讨论)
[美国][剧情/奇幻/冒险][权力的游戏第八季 Game.of.Thrones.S08(更新04集)][WEBRip-MKV/2G][中英字幕] ◎译  名 权力的游戏 第八季/Game of Thrones: The Final Season/权游8 ◎片  名 Game of Thrones Season 8 ◎年  代 2019 ◎产  地  美国 ◎类  别 剧情/奇幻/冒险 ◎语  言  英语 ◎官方主页  http://www.hbo.com/game-of-thrones ◎上映日期 2019-04-14(美国) ◎整理链接 http://bbs.homefei.me/read-htm-tid-184747.html ◎IMDb评分 9.5/10 from 1,437,376 users ◎IMDb链接 http://www.imdb.com/title/tt0944947 ◎豆瓣评分 9.8/10 from 8,792 users ◎豆瓣链接  https://movie.douban.com/subject/26584183/ ◎集  数 6 ◎片  长 60分钟(E1-E2) / 80分钟(E3-E6) ◎导  演 米格尔·萨普什尼克 Miguel Sapochnik / 大卫·努特尔 David Nutter / 戴维·贝尼奥夫 David Benioff / D·B·威斯 D.B. Weiss ◎编  剧 戴维·贝尼奥夫 David Benioff / D·B·威斯 D.B. Weiss / 乔治·马丁 George R.R. Martin ◎主  演 艾米莉亚·克拉克 Emilia Clarke 基特·哈灵顿 Kit Harington 彼特·丁拉基 Peter Dinklage 苏菲·特纳 Sophie Turner 麦茜·威廉姆斯 Maisie Williams 琳娜·海蒂 Lena Headey 伊萨克·亨普斯特德-怀特 Isaac Hempstead-Wright 尼古拉·科斯特-瓦尔道 Nikolaj Coster-Waldau 约翰·C·布莱德利 John C. Bradley 阿尔菲·艾伦 Alfie Allen 皮鲁·埃斯贝克 Pilou Asbæk 格温多兰·克里斯蒂 Gwendoline Christie 利亚姆·坎宁安 Liam Cunningham ◎简  介 HBO剧集《权力的游戏》第八季将于2019年4月14日播出,本季共6集。 故事发展至第八季,重返临冬城的琼恩·雪诺(基特·哈灵顿 Kit Harington 饰)在布兰·史塔克(伊萨克·亨普斯特德-怀特 Isaac Hempstead-Wright 饰)口中得知了自己身世的 秘密 ,让他与丹妮莉丝·塔格利安(艾米莉亚·克拉克 Emilia Clarke 饰)的关系蒙上了一层冰霜。 詹姆·兰尼斯特(尼古拉·科斯特-瓦尔道 Nikolaj Coster-Waldau 饰)试图召集河间地驻军北伐异鬼,却发现艾德慕·徒利(托比亚斯·门基斯 Tobias Menzies 饰)已经包围你了奔流城。 攸伦·葛雷乔伊(皮鲁·埃斯贝克 Pilou Asbæ 饰)将黄金团带至君临获取了瑟曦(琳娜·海蒂 Lena Headey 饰)的信任,而实际上,他已经与无面者贾昆·赫加尔(汤姆·拉斯齐哈 Tom Wlaschiha 饰)私下达成了秘密协议。 ◎获奖情况 第5届豆瓣 电影 年度榜单 ( 2018 ) 最值得期待的剧集(提名) 第一集磁力链接: magnet:?xt=urn:btih:cb4b612b6259ff87fc9322b6c71867ba107cc841&xl=2130707465 第二集磁力链接: magnet:?xt=urn:btih:08f53f5768c41bd73d266286fedfacbbe05817a9&xl=2285896713 第三集磁力链接: magnet:?xt=urn:btih:4E27CC34832CE75CDF652C0BA51FFB6B45C66CB2 第四集磁力链接: magnet:?xt=urn:btih:B54F70152F7BE160E9FDBC9105A1EBF25BB93921
05/06 19:32 飘域家园 (讨论)
[美国][剧情/奇幻/冒险][权力的游戏第八季 Game.of.Thrones.S08E01-02(更新02集)][WEBRip-MKV/2G][中英字幕] ◎译  名 权力的游戏 第八季/Game of Thrones: The Final Season/权游8 ◎片  名 Game of Thrones Season 8 ◎年  代 2019 ◎产  地  美国 ◎类  别 剧情/奇幻/冒险 ◎语  言  英语 ◎官方主页  http://www.hbo.com/game-of-thrones ◎上映日期 2019-04-14(美国) ◎整理链接 http://bbs.homefei.me/read-htm-tid-184747.html ◎IMDb评分 9.5/10 from 1,437,376 users ◎IMDb链接 http://www.imdb.com/title/tt0944947 ◎豆瓣评分 9.8/10 from 8,792 users ◎豆瓣链接  https://movie.douban.com/subject/26584183/ ◎集  数 6 ◎片  长 60分钟(E1-E2) / 80分钟(E3-E6) ◎导  演 米格尔·萨普什尼克 Miguel Sapochnik / 大卫·努特尔 David Nutter / 戴维·贝尼奥夫 David Benioff / D·B·威斯 D.B. Weiss ◎编  剧 戴维·贝尼奥夫 David Benioff / D·B·威斯 D.B. Weiss / 乔治·马丁 George R.R. Martin ◎主  演 艾米莉亚·克拉克 Emilia Clarke 基特·哈灵顿 Kit Harington 彼特·丁拉基 Peter Dinklage 苏菲·特纳 Sophie Turner 麦茜·威廉姆斯 Maisie Williams 琳娜·海蒂 Lena Headey 伊萨克·亨普斯特德-怀特 Isaac Hempstead-Wright 尼古拉·科斯特-瓦尔道 Nikolaj Coster-Waldau 约翰·C·布莱德利 John C. Bradley 阿尔菲·艾伦 Alfie Allen 皮鲁·埃斯贝克 Pilou Asbæk 格温多兰·克里斯蒂 Gwendoline Christie 利亚姆·坎宁安 Liam Cunningham ◎简  介 HBO剧集《权力的游戏》第八季将于2019年4月14日播出,本季共6集。 故事发展至第八季,重返临冬城的琼恩·雪诺(基特·哈灵顿 Kit Harington 饰)在布兰·史塔克(伊萨克·亨普斯特德-怀特 Isaac Hempstead-Wright 饰)口中得知了自己身世的 秘密 ,让他与丹妮莉丝·塔格利安(艾米莉亚·克拉克 Emilia Clarke 饰)的关系蒙上了一层冰霜。 詹姆·兰尼斯特(尼古拉·科斯特-瓦尔道 Nikolaj Coster-Waldau 饰)试图召集河间地驻军北伐异鬼,却发现艾德慕·徒利(托比亚斯·门基斯 Tobias Menzies 饰)已经包围你了奔流城。 攸伦·葛雷乔伊(皮鲁·埃斯贝克 Pilou Asbæ 饰)将黄金团带至君临获取了瑟曦(琳娜·海蒂 Lena Headey 饰)的信任,而实际上,他已经与无面者贾昆·赫加尔(汤姆·拉斯齐哈 Tom Wlaschiha 饰)私下达成了秘密协议。 ◎获奖情况 第5届豆瓣 电影 年度榜单 ( 2018 ) 最值得期待的剧集(提名) 第一集磁力链接: magnet:?xt=urn:btih:cb4b612b6259ff87fc9322b6c71867ba107cc841&xl=2130707465 第二集磁力链接: magnet:?xt=urn:btih:08f53f5768c41bd73d266286fedfacbbe05817a9&xl=2285896713
04/22 19:15 飘域家园 (讨论) 约1条评论
[美国][剧情/奇幻/冒险][权力的游戏第八季 Game.of.Thrones.S08E01(更新01集)][WEBRip-MKV/2G][中英字幕] ◎译  名 权力的游戏 第八季/Game of Thrones: The Final Season/权游8 ◎片  名 Game of Thrones Season 8 ◎年  代 2019 ◎产  地  美国 ◎类  别 剧情/奇幻/冒险 ◎语  言  英语 ◎官方主页  http://www.hbo.com/game-of-thrones ◎上映日期 2019-04-14(美国) ◎整理链接 http://bbs.homefei.me/read-htm-tid-184747.html ◎IMDb评分 9.5/10 from 1,437,376 users ◎IMDb链接 http://www.imdb.com/title/tt0944947 ◎豆瓣评分 9.8/10 from 8,792 users ◎豆瓣链接  https://movie.douban.com/subject/26584183/ ◎集  数 6 ◎片  长 60分钟(E1-E2) / 80分钟(E3-E6) ◎导  演 米格尔·萨普什尼克 Miguel Sapochnik / 大卫·努特尔 David Nutter / 戴维·贝尼奥夫 David Benioff / D·B·威斯 D.B. Weiss ◎编  剧 戴维·贝尼奥夫 David Benioff / D·B·威斯 D.B. Weiss / 乔治·马丁 George R.R. Martin ◎主  演 艾米莉亚·克拉克 Emilia Clarke 基特·哈灵顿 Kit Harington 彼特·丁拉基 Peter Dinklage 苏菲·特纳 Sophie Turner 麦茜·威廉姆斯 Maisie Williams 琳娜·海蒂 Lena Headey 伊萨克·亨普斯特德-怀特 Isaac Hempstead-Wright 尼古拉·科斯特-瓦尔道 Nikolaj Coster-Waldau 约翰·C·布莱德利 John C. Bradley 阿尔菲·艾伦 Alfie Allen 皮鲁·埃斯贝克 Pilou Asbæk 格温多兰·克里斯蒂 Gwendoline Christie 利亚姆·坎宁安 Liam Cunningham ◎简  介 HBO剧集《权力的游戏》第八季将于2019年4月14日播出,本季共6集。 故事发展至第八季,重返临冬城的琼恩·雪诺(基特·哈灵顿 Kit Harington 饰)在布兰·史塔克(伊萨克·亨普斯特德-怀特 Isaac Hempstead-Wright 饰)口中得知了自己身世的 秘密 ,让他与丹妮莉丝·塔格利安(艾米莉亚·克拉克 Emilia Clarke 饰)的关系蒙上了一层冰霜。 詹姆·兰尼斯特(尼古拉·科斯特-瓦尔道 Nikolaj Coster-Waldau 饰)试图召集河间地驻军北伐异鬼,却发现艾德慕·徒利(托比亚斯·门基斯 Tobias Menzies 饰)已经包围你了奔流城。 攸伦·葛雷乔伊(皮鲁·埃斯贝克 Pilou Asbæ 饰)将黄金团带至君临获取了瑟曦(琳娜·海蒂 Lena Headey 饰)的信任,而实际上,他已经与无面者贾昆·赫加尔(汤姆·拉斯齐哈 Tom Wlaschiha 饰)私下达成了秘密协议。 ◎获奖情况 第5届豆瓣 电影 年度榜单 ( 2018 ) 最值得期待的剧集(提名) 磁力链接: magnet:?xt=urn:btih:cb4b612b6259ff87fc9322b6c71867ba107cc841&xl=2130707465
04/15 20:32 飘域家园 (讨论)
[中国][战争/历史][辛亥革命1911 Revolution 2011][BD-MKV/3G][中英字幕][赵文瑄/孙淳/成龙/姜武/李冰冰] 【中 文 名】 辛亥革命 【外 文 名】 Xin Hai Ge Ming 【译 名】 1911辛亥革命 【出品时间】 2011年 【出品公司】上海东方影视发行有限责任公司 【制片地区】 中国 【制片成本】 $30,000,000/estimated 【拍摄地点】 浙江横店影视城 【导 演】 张黎,成龙 【编 剧】 王兴东,陈宝光 【制 片 人】 汪天云,毕述林,王浙滨 【类 型】 战争/历史 【主 演】 赵文瑄,孙淳,成龙,姜武,黄志忠,李冰冰 【片 长】 120分钟 【上映时间】 2011年9月23日 【语言字幕】 粤语/中英字幕 【海外发行】 北京耀莱国际文化产业有限公司 【整理链接】 http://bbs.homefei.me/read-htm-tid-183593.html 【 剧情 简介】 《辛亥革命》是由张黎和成龙执导,赵文瑄、李冰冰、陈冲、孙淳、房祖名、胡歌、余少群、杜宇航等主演的革命 战争 片。该片讲述了晚清末年,内忧外患,中华民族到了危亡之际。改良派维新变法运动的失败,孙中山为首的革命派,决心以革命推翻清政府,建立共和体制的故事。该片于2011年9月23日在中国内地公映。 晚清末年,内忧外患,中华民族到了危亡之际。改良派维新变法运动的失败,孙中山为首的革命派,决心以革命推翻清政府,建立共和体制。 1895到1910年,革命党人先后发动了多次起义,秋瑾、徐锡麟等一批革命党先驱先后牺牲,革命陷入低潮。 1910年底,孙中山再次在海外召集同盟会骨干,组织力量准备在广州发动起义黄兴与徐宗汉假扮夫妇, 秘密 潜入广州。然而广州之战终因革命党人寡不敌众而告负,林觉民等一大批革命骨干壮烈牺牲,黄兴也身负重伤。徐宗汉等冒死收葬了烈士遗体72具,葬于广州城外的黄花岗。 经过这次的起义,清政府对革命党人进行了血腥镇压,同时积极寻求与帝国主义的卖国交易。 在四川,清廷又一次丧权辱国的行为,引发了轰轰烈烈的保路运动,湖北新军被紧急抽调前去镇压。在武昌,新军当中的革命党名单泄露,湖广总督瑞澂开始对名单上的革命党人逐一捕杀,革命形势十分危急,革命党人熊秉坤、金兆龙等愤然打响了革命第一枪。经过一夜激战,武昌起义的革命军攻占了总督府,黎元洪被革命军将士紧急推为军政府都督。 武昌起义成功,举国震惊,消息传到 美国 ,孙中山和同盟会成员欢欣鼓舞。立即派黄兴和徐宗汉赶到武昌战场,大大振奋了革命军士气。不惜以热血和生命保卫飘扬着革命红旗的武汉三镇。经过这么多血与火的洗礼,黄兴和徐宗汉的感情不断升华,两人决定结为革命夫妻继续比并肩战斗。 风雨飘渺的清廷只好请袁世凯出山,率北洋军镇压革命。袁世凯一方面镇压革命军,另一方面仍试图在各方势力的博弈中,暗地里通过革命党人汪精卫传达与革命党和谈的愿望。 革命的危急关头,孙中山奔赴海外,力排众议,最终说服西方列国财团,不再借贷款支持清廷。 阳夏保卫战打得异常惨烈,黄兴和黎元洪艰难支撑,在各种反动势力的夹击下,黄兴毅然决定率部撤往长江下游,集聚力量,以图大业。 长江战舰在行进中,传来了多省宣布独立的消息,黄兴等备受鼓舞。 自此,革命形势进入了南北对峙的局面,经过多方努力,南北代表唐绍仪和伍廷芳终于坐下来会谈,经过艰难谈判,双方达成共识,支持建立共和政体;经过十八省代表的公开民主选举,孙中山被推选为首任大总统。孙中山表示,只要袁世凯敦促清帝退位,他即可让位,由逼退清让位的人,出任中华民国大总统。 【电影 截图 】 磁力链接: magnet:?xt=urn:btih:eafdf760d5551860f6a6f0af02c20fa51d53a00c&xl=3321889801
03/23 10:57 飘域家园 (讨论)
Clip Studio Paint EX v2.2.0 多国语言特别版 CSP绘图软件日本2D、3D建模区域解锁 免责声明:本补丁仅供学习技术交流,请勿用于商业及非法用途,请下载后5分钟内删除,作者不承担因补丁带来的任何责任,运行本补丁即默认同意以上声明。 注意:禁止在任何地方出售该补丁。包括但不限于闲鱼、淘宝、以需要积分才能下载的方式分享该补丁、需要充值会员VIP或使用积分才能下载的 论坛 或网站。如果是付费购买到该补丁,请立即退款举报差评。一切责任与后果由出售该补丁者独自承担。祝盗卖者:赚钱少少,退款多多:) 补丁说明(更新历史、更新日志): 1、解除区域限制,默认官方繁体中文(官方无简体中文) 2、破解EX版无限制永久使用 3、支持登录官方账号使用官方云服务 4、不再联网验证授权,永远不会画到一半就卡 5、加速退出时释放内存过程,关闭程序速度加快 6、剥离所有注册相关代码,静享丝滑!!! 7、更加完善,且不再需要替换"Config.sqlite"文件 8、中国大陆地区版本限定特典:加入不定期不定时弹框“付费购买退款差评”提示内容为注意里的内容,提示3次后永久不再提示。如有打扰请见谅。 9、退出时以强制杀进程的方式结束进程,关闭时再也不会卡几秒了 10、优化第9项,以稍微不那么暴力的方式结束进程,为了兼容某些安装了第三方杀毒软件的PC。 11、优化第8项,为了让用户认真看字,随机弹框的次数从3次改为1次,并且在弹窗出现的10秒内强制无法关闭,需等待10秒后自动关闭,关闭后永久不再提示。 12、去除中国大陆地区版本随机弹窗,方便录视频教程的小画家们。 13、中国大陆地区版本特供版新增启动密码防盗卖,正确输入一次后无需再次输入,永无打扰,但下次更新需再次输入。 14、最近发现某宝某鱼竟然有人贩卖装好该版本的虚拟机文件!这个版本(1.11.14)给你一次端正态度的机会。再有下个版本增加“禁止在虚拟机中运行”的功能。 15、优化以更好的适配Windows 11系统。 16、简体中文补丁正式版已集成,翻译了99%的繁体中文,未改变任何词义,只为方便看不懂繁体字的小画师们使用。 17、初次启动可能会弹出数据收集相关窗口,请查看图片“RM01.png”对照设置。 18、启动不再需要输入启动密码,永久加入防盗卖启动画面,每次启动时强制显示5秒后自动关闭,不可手动关闭。 19、防盗卖启动界面显示时间变更为3.4秒,同时提供"启动画面版本"和"启动水印版本"两种补丁,启动界面样式不同,功能完全一样。 20、完善简体中文补丁,把滤镜菜单简体中文化,多国语言(Multilanguage)补丁已完全移除了中文,需要中文请务必使用中文补丁。 21、优化略微加快了启动关闭程序的速度。 22、由于启动水印版补丁的启动水印不明显,导致还有人敢贩卖,从v2.0.0起不再提供启动水印版补丁,只提供启动画面版补丁。 23、添加"Official Simplified Chinese"以CSP官方在移动端的简体中文为蓝本制作的PC简体中文补丁,更符合中国大陆本地词汇语言习惯。 24、彻底修复了滤镜缺失问题,由于淘宝闲鱼盗卖贩子越发猖狂,今后不再给滤镜做简体字补丁。 25、为减少工作量,不再提供繁体字转简体字补丁,今后的简体字补丁只提供以CSP官方在移动端的简体中文为蓝本制作的PC简体中文补丁。 26、加入防盗卖文档,第一次安装的用户在第一次启动CSP后的20分钟后到48小时内,有30%的概率随机自动打开一次防盗卖文档,之后不再有任何打扰。 27、加入了某位神秘画师提供的白毛兽耳萝莉女仆启动画面图,上个启动CSP娘启动画面也一并保留同时提供。 28、修复了诟病已久的关闭无响应BUG,可能偶尔还会触发,但比之前能更快关闭,请放心,只要按过Ctrl+S保存后绝对不会丢工程,要经常按哦。 29、再次优化了简体字,使其比“优动漫”的简体字更标准。 启动画面背景图无偿征集帖: https://bbs.itzmx.com/thread-101638-1-1.html 每次更新换一张,随机抽选,请自行更新查看自己是否被选中,会对每一位提交者保密,提交的图仅用于启动画面,原创优先,有签名的原创最优先。 (原创需同时提交带图层列表的绘画界面截图加以证明,原创可自愿选择是否在图上签名,但不得出现接单联系方式, 启动画面中的文字字体及颜色排版可自愿修改设计,可少量增删改,但不得改变原意,如果极为优秀,可能沿用至多个更新版本。 搬运请务必注明画师名及出处。分辨率不小于1280 x 720,大触们尽情秀起来吧!!) 使用方法: 1、安装"CSP_220w_setup.exe" 2、把补丁文件"CLIPStudioPaint.exe"覆盖软件安装目录下同名文件,一般为"C:\Program Files\CELSYS\CLIP STUDIO 1.5\CLIP STUDIO PAINT\" 3、运行"CLIPStudioPaint.exe"或使用"CLIP STUDIO"正常启动 4、检查"TestProjects"里的测试用工程文件,能正常打开、修改、保存即安装成功 简体字和繁体字版特别注意: 1、补丁目录里的防盗卖文档必须要同时拷贝到安装目录下补丁才能正常使用,文件内一个字都不能改,改一个字就无法运行!没在跟你开玩笑! 注意: 1、中国大陆地区必须使用"Traditional Chinese"(繁体中文)或"Simplified Chinese"(简体中文)"文件夹里的补丁文件,中国大陆以外地区请使用“Multilanguage”里的补丁文件。 2、关闭软件时可能会小卡一下是释放内存过程。只要保存好了工程再关闭,即使用任务管理器强行关闭也不会丢失工程。Ctrl+S后可以放心关闭,电脑死机停电都不会丢工程。 中秋节快乐!放下手头上的工作回家看看父母哦 ^_^ Happy Mid-Autumn Festival! Set aside what you're doing and go home to visit your parents. ^_^ 请支持正版,谢绝淘宝人员转载,官网 https://www.clipstudio.net/tc/purchase/ 下载地址: https://bbs.itzmx.com/thread-103690-1-1.html
昨天 07:05 五花八门
世界遗产是属于地球和人类的,保护世界遗产业已成为21世纪最大的国际合作。或遭风化或受人为破坏,遗产也许无法永存,而借助数码技术,一旦凝固于影像,便可以高清晰地再现,永久保存。基于这样的初衷,从1996年起,日本TBS电视台便开始拍摄制作《世界遗产》这一大型系列纪录片,每周播放一期,迄今为止已经连续播出超过一千集。 在这20多年里,摄制组多次前往从未有人涉足拍摄过的世界遗产进行拍摄。从南极附近的孤岛,到居住着珍稀野兽的中美洲巴拿马热带雨林,从福冈的神宿之岛,到位于深海海底的火山,他们的足迹已踏遍全球的各个角落。拍摄规格也从最初低清晰度的模拟视频,到后来的高清宽屏数字视频,一直到4K超清影片、VR虚拟现实影片,越来越多的世界遗产被凝固在了影像节目中,成为了人类文化和地球样貌的永久纪录。 在这些高质量的影片背后,也少不了制作人员的艰难困苦。每个小组需要携带数百公斤的拍摄器材,有时免不了要踏入人迹罕至的原始丛林,有时又需要攀爬险峻的山峰,又或是要潜入海底。有些摄制组组成员甚至还遇到过致命危险,曾和死神擦身而过。这些辛勤汗水最终化为一部部精彩的视觉盛宴,为您带来源自各地的世界遗产风光。 ========字幕组长期招募=========== 详细招募说明请看此贴→ subs.kamigami.org/28.html 说明:诸神字幕组以高质量精品字幕为宗旨,要求所有制作成员对作品有认真负责的态度。 安排工作时,时间宽裕、责任心强者优先。 ========================== 字幕组官方微博:@诸神字幕组 诸神字幕组 字幕组B站账号:@诸神字幕组 诸神字幕组 更多双语字幕,请访问诸神字幕组发布站 http://subs.kamigami.org 诸神字幕组是以制作双语字幕为主要活动的 网络组织 ,于2008年2月29日创立。意在通过传播异国文化和利用这一沟通渠道,增进对于异国国度的了解,提高大家对于外国语言的理解能力,同时结交更多志同道合的战友们共同奋斗!
前天 00:40 五花八门
世界遗产是属于地球和人类的,保护世界遗产业已成为21世纪最大的国际合作。或遭风化或受人为破坏,遗产也许无法永存,而借助数码技术,一旦凝固于影像,便可以高清晰地再现,永久保存。基于这样的初衷,从1996年起,日本TBS电视台便开始拍摄制作《世界遗产》这一大型系列纪录片,每周播放一期,迄今为止已经连续播出超过一千集。 在这20多年里,摄制组多次前往从未有人涉足拍摄过的世界遗产进行拍摄。从南极附近的孤岛,到居住着珍稀野兽的中美洲巴拿马热带雨林,从福冈的神宿之岛,到位于深海海底的火山,他们的足迹已踏遍全球的各个角落。拍摄规格也从最初低清晰度的模拟视频,到后来的高清宽屏数字视频,一直到4K超清影片、VR虚拟现实影片,越来越多的世界遗产被凝固在了影像节目中,成为了人类文化和地球样貌的永久纪录。 在这些高质量的影片背后,也少不了制作人员的艰难困苦。每个小组需要携带数百公斤的拍摄器材,有时免不了要踏入人迹罕至的原始丛林,有时又需要攀爬险峻的山峰,又或是要潜入海底。有些摄制组组成员甚至还遇到过致命危险,曾和死神擦身而过。这些辛勤汗水最终化为一部部精彩的视觉盛宴,为您带来源自各地的世界遗产风光。 ========字幕组长期招募=========== 详细招募说明请看此贴→ subs.kamigami.org/28.html 说明:诸神字幕组以高质量精品字幕为宗旨,要求所有制作成员对作品有认真负责的态度。 安排工作时,时间宽裕、责任心强者优先。 ========================== 字幕组官方微博:@诸神字幕组 诸神字幕组 字幕组B站账号:@诸神字幕组 诸神字幕组 更多双语字幕,请访问诸神字幕组发布站 http://subs.kamigami.org 诸神字幕组是以制作双语字幕为主要活动的 网络组织 ,于2008年2月29日创立。意在通过传播异国文化和利用这一沟通渠道,增进对于异国国度的了解,提高大家对于外国语言的理解能力,同时结交更多志同道合的战友们共同奋斗!
前天 00:40 五花八门
Live2D Cubism Pro 5.0 Crack Patch 手机游戏引擎人物模型制作软件繁体中文汉化完美破解版下载 Live2D游戏制作引擎,轻松可作出可爱的游戏人物 又一款全球首破,比如说约战精灵再临手游里面用的就是这个 免责声明:本补丁仅供学习技术交流,请勿用于商业及非法用途,请下载后5分钟内删除,作者不承担因补丁带来的任何责任,运行本补丁即默认同意以上声明。 注意:禁止在任何地方出售该补丁。包括但不限于闲鱼、淘宝、以需要积分才能下载的方式分享该补丁、需要充值会员VIP或使用积分才能下载的 论坛 或网站。如果是付费购买到该补丁,请立即退款举报差评。一切责任与后果由出售该补丁者独自承担。祝盗卖者:赚钱少少,退款多多:) 使用方法: 1、安装"Live2D_Cubism_Setup_5.0.00.exe" 2、把"Patch"文件夹里的2个文件全部拷贝到"C:\Program Files\Live2D Cubism 5.0\app\lib\"目录里替换原有文件。 3、正常运行“CubismEditor5.exe”或“CubismViewer5.exe”即为完美破解版。 你喜欢洛天依吗?我特别喜欢天依和她那首《光与影的对白》^_^ Do you like Luo Tianyi? I especially like Luo Tianyi and her song "Dialogue of Light and Shadow" ^_^ (本补丁还是出自b站的某个“诈骗区”up主之手,也是全球首个4.x补丁rlm1221.dll+.lic和配套AE插件补丁的作者,90%的模型师都在用他的补丁。据说在老补丁rlm1221.dll上鼠标右键-属性-详细信息里能找到一些小线索^_^) 下载: https://bbs.itzmx.com/thread-103666-1-1.html
09/22 21:43 五花八门